Welcome Guest ( Log In | Register )

> Ihloosuhree - Analysis Paralysis (2018), Experimental Black Metal
post May 15 2018, 23:15:32
Post #1

Правь статус, ####!616
**************
Group: Металариец
Posts: 4,404
Releases: 3004
From: 55°35’N 38°08’E
On Forums: 10 years 2 months
Thanks: 56509 time(s)
Unknown


(IMG:http://metalarea.org/images/audiocovers/2018_May/acov_tid305972_thumb.jpg)

*Artist: Ihloosuhree
*Album: Analysis Paralysis
*Year: 2018
*Genre: Experimental Black Metal
*Country: Belgium (IMG:http://metalarea.org/forum/style_images/flags/Belgium.png)
*Format: mp3@CBR320kbps
*Size: 84MB

Tracklist:
1.Rite De Passage 05:14
2.Lichaam En Geest 04:32
3.Analysis Paralysis 06:15
4.Illumination Through Intoxication 04:35
5.Nothing Really Means Anything 06:09
6.21st Century Irrationality 06:57
******************************
Total playing time: 33:42


(IMG:http://metalarea.org/images/youtube.png)


Extended info
12" vinyl, Babylon Doom Cult Records


Technical info
(IMG:http://metalarea.org/images/spectrogram/2018_May/0f857be551494a504991a7721d7504c5.png)
Input File: 01 Rite De Passage.mp3
Channels : 2
Sample Rate : 44100
Precision : 16-bit
Duration : 00:05:14.55 = 13871479 samples = 23591 CDDA sectors
File Size : 12.8M
Bit Rate : 325k
Sample Encoding: MPEG audio (layer I, II or III)
Comments :
Title=Rite De Passage
Artist=Ihloosuhree
Album=Analysis Paralysis
Tracknumber=1
Year=2018
Genre=Black Metal



Register


Go to the top of the page
  Insert nick Quick quote
+Quote Post
 
Start new topic
Replies (1 - 1)
post May 16 2018, 17:18:27
Post #2

Восемь Литров
********
Group: Металариец
Posts: 857
Releases: 26
From: Mакеевка
On Forums: 11 years 7 months
Thanks: 470 time(s)
Russian Federation


чуть брутальее бы, так слабовато
Go to the top of the page
  Insert nick Quick quote
+Quote Post

Reply to this topicStart new topic
2 User(s) are reading this topic (2 Guests and 0 Anonymous Users)
0 Members:

 



- Lo-Fi Version Support form
Copyrights and abuse reports form
Time is now: 24th September 2018 - 23:30:41