Welcome Guest ( Log In | Register )

 
Reply to this topicStart new topic
> Bestia & Isgalder & Urt & Zornestrieb - Split [split] (2018), Black Metal | Black Metal | Black Metal | Black Metal
post May 16 2018, 00:35:50
Post #1

Правь статус, ####!616
**************
Group: Металариец
Posts: 4,426
Releases: 3019
From: 55°35’N 38°08’E
On Forums: 10 years 5 months
Thanks: 57021 time(s)
Unknown


(IMG:http://metalarea.org/images/audiocovers/2018_May/acov_tid305973_thumb.jpg)

*Artist: Bestia & Isgalder & Urt & Zornestrieb
*Album: Split [split]
*Year: 2018
*Genre: Black Metal | Black Metal | Black Metal | Black Metal
*Country: Estonia (IMG:http://metalarea.org/forum/style_images/flags/Estonia.png) | Germany (IMG:http://metalarea.org/forum/style_images/flags/Germany.png) | Estonia (IMG:http://metalarea.org/forum/style_images/flags/Estonia.png) | Germany (IMG:http://metalarea.org/forum/style_images/flags/Germany.png)
*Format: mp3@CBR320kbps
*Size: 49MB

Tracklist:
Bestia:
1.Idaviikingid 04:15
Isgalder:
2.Sirius Ablaze 05:37
Urt:
3.Uus ilma kord 05:24
Zornestrieb:
4.Erhabend nicht Klagend! 05:18
******************************
Total playing time: 20:34



Technical info
(IMG:http://metalarea.org/images/spectrogram/2018_May/a21097419285234de05f52b8ca6df3c5.png)
Input File: 01 Idaviikingid (Bestia).mp3
Channels : 2
Sample Rate : 44100
Precision : 16-bit
Duration : 00:04:16.08 = 11293084 samples = 19205.9 CDDA sectors
File Size : 10.4M
Bit Rate : 325k
Sample Encoding: MPEG audio (layer I, II or III)
Comments :
Title=Idaviikingid (Bestia)
Artist=Bestia
Album=4-way split 2018
Tracknumber=1
Year=2018
Genre=Black Metal



Register


Go to the top of the page
  Insert nick Quick quote
+Quote Post

Reply to this topicStart new topic
1 User(s) are reading this topic (1 Guests and 0 Anonymous Users)
0 Members:

 



- Lo-Fi Version Support form
Copyrights and abuse reports form
Time is now: 11th December 2018 - 23:04:33