Welcome Guest ( Log In | Register )

> Faceless Enemy - Infinity (2018), Thrash/Heavy Metal
post May 16 2018, 08:00:47
Post #1

Правь статус, ####!111
**************
Group: Металариец
Posts: 14,311
Releases: 9925
From: Г.Харьков
On Forums: 6 years 4 months
Thanks: 162876 time(s)
Unknown


(IMG:https://metalarea.org/images/audiocovers/2018_May/acov_tid305975_thumb.jpg)

*Artist: Faceless Enemy
*Album: Infinity
*Year: 2018
*Genre: Thrash/Heavy Metal
*Country: Austria (IMG:https://metalarea.org/forum/style_images/flags/Austria.png)
*Format: mp3@CBR320kbps
*Size: 96MB

Tracklist:
1. Intro
2. Knight Of Fire
3. We Fall Deep And Hard
4. Mr. Hero
5. Midnight Hour
6. The Reason
7. Voices
8. Way Back Home
9. Maybe
10. Sick!
******************************
Total playing time: 41:32



Extended info
Patrick Eder - Vocals
Markus Helmberger - Drums
Patrick "Willi" Wilhelm - Guitar
Alex Deussl - Bass
Thomas Mayrhofer - Lead Guitar



Technical info
(IMG:https://metalarea.org/images/spectrogram/2018_May/4cc0b1422f1f959080b07fde79a193fe.png)
Input File: 02 Knight of Fire.mp3
Channels : 2
Sample Rate : 44100
Precision : 16-bit
Duration : 00:05:52.82 = 15559318 samples = 26461.4 CDDA sectors
File Size : 14.2M
Bit Rate : 323k
Sample Encoding: MPEG audio (layer I, II or III)
Comments :
Title=Knight of Fire
Artist=Faceless Enemy
Album=Infinity
Tracknumber=2/10
Year=2018
Genre=Thrash Metal
Discnumber=1/1



Register


Go to the top of the page
  Insert nick Quick quote
+Quote Post
 
Start new topic
Replies (1 - 1)
post May 16 2018, 20:37:04
Post #2

hearer & reader
**************
Group: Металариец
Posts: 6,871
Releases: 86
From: Moscow
On Forums: 11 years 2 weeks
Thanks: 6619 time(s)
Russian Federation


ЦИТАТА
Anthrax - Metallica - little bit of Megadeth

Модернятину грандов трэша стянули, с мастерством сложнее..
Go to the top of the page
  Insert nick Quick quote
+Quote Post

Reply to this topicStart new topic
1 User(s) are reading this topic (1 Guests and 0 Anonymous Users)
0 Members:

 



- Lo-Fi Version Support form
Copyrights and abuse reports form
Time is now: 24th September 2018 - 00:29:17