Welcome Guest ( Log In | Register )

> Masturbation With The Bible - Drowned In Holy Vaginal Fluids (2018), Brutal Death Metal/Goregrind
post May 16 2018, 08:54:19
Post #1

Правь статус, ####!111
**************
Group: Металариец
Posts: 14,311
Releases: 9925
From: Г.Харьков
On Forums: 6 years 4 months
Thanks: 162876 time(s)
Unknown


(IMG:https://metalarea.org/images/audiocovers/2018_May/acov_tid305977_thumb.jpg)

*Artist: Masturbation With The Bible
*Album: Drowned In Holy Vaginal Fluids
*Year: 2018
*Genre: Brutal Death Metal/Goregrind
*Country: Venezuela (IMG:https://metalarea.org/forum/style_images/flags/Venezuela.png)
*Format: mp3@CBR320kbps
*Size: 72MB

Tracklist:
1. Intro 01:15
2. Copro.Necro.Jesus 02:53
3. Orgy in the Vaticano 02:26
4. Inserting an Enema into his Rotten Christian Cavity 02:04
5. Pedophile Priest 03:26
6. Fist-Fuck the Nun 02:32
7. Removing the Skin of the Messiah 02:59
8. Masturbation with the Bible 02:31
9. Pray for a Cumshot 02:08
10. Church Made by Feces 02:47
11. Zombie Christianity 02:17
12. Drowned in Holy Vaginal Fluids 03:06
13. Asshole Ghost - Wishmaker (Gutalax cover) 01:22
******************************
Total playing time: 31:46




Extended info
Ruben Salas Bass
See also: ex-Avernus Satani
Argenis Betancourt Drums
See also: Stormthrash, ex-Avernus Satani
Wuillian Bermúdez Guitars
See also: ex-Avernus Satani
Marcel Molero Guitars
See also: ex-Avernus Satani
Julio "Palín" Arrieche Vocals
See also: ex-Avernus Satani


Technical info
(IMG:https://metalarea.org/images/spectrogram/2018_May/69445401d33b96e1941e07f5d16175f6.png)
Input File: 03 - Orgy In The Vaticano.mp3
Channels : 2
Sample Rate : 44100
Precision : 16-bit
Duration : 00:02:26.18 = 6446626 samples = 10963.6 CDDA sectors
File Size : 5.85M
Bit Rate : 320k
Sample Encoding: MPEG audio (layer I, II or III)
Comments :
Title=Orgy In The Vaticano
Artist=Masturbation With the Bible
Album=Drowned In Holy Vaginal Fluids
Tracknumber=3
Year=2018
Genre=Death Metal



Register


Go to the top of the page
  Insert nick Quick quote
+Quote Post
 
Start new topic
Replies (1 - 1)
post May 16 2018, 20:30:02
Post #2

hearer & reader
**************
Group: Металариец
Posts: 6,871
Releases: 86
From: Moscow
On Forums: 11 years 2 weeks
Thanks: 6619 time(s)
Russian Federation


От банды
Go to the top of the page
  Insert nick Quick quote
+Quote Post

Reply to this topicStart new topic
1 User(s) are reading this topic (1 Guests and 0 Anonymous Users)
0 Members:

 



- Lo-Fi Version Support form
Copyrights and abuse reports form
Time is now: 24th September 2018 - 00:29:43