Welcome Guest ( Log In | Register )

> Releases Upload / Добавление релизов

Добавить релиз тут / Click here to add release
Рекомендованные обменники / Recommended file shares

> TIMŌRĀTUS - The Great Mortality (2018), Black/Death Metal
post May 16 2018, 10:54:36
Post #1

Аннигилятор пивА
Group Icon
Group: V.I.P
Posts: 46,692
Releases: 14016
From: Koenigsberg - TILZIT
On Forums: 11 years 11 months
Thanks: 310872 time(s)
Russian Federation


(IMG:https://metalarea.org/images/audiocovers/2018_May/acov_tid305979_thumb.jpg)

*Artist: TIMŌRĀTUS
*Album: The Great Mortality
*Year: 2018
*Genre: Black/Death Metal
*Country: United States (IMG:https://metalarea.org/forum/style_images/flags/United%20States.png)
*Format: mp3@CBR320kbps
*Size: 92MB

Tracklist:
1. Of Human Bondage 04:00
2. Eternal Loss 04:27
3. Intermission (2 Years Later) 01:12
4. Confrontation of the End 03:56
5. No One Left 04:29
6. Intermission (4 Years Later) 01:00
7. Slumbering Vision 06:58
8. Realization of Purpose 06:36
9. Intermission (8 Years Later) 00:38
10. Questions 00:51
11. Coming Into Her Own 00:47
12. Father 00:40
13. New Love 01:10
14. Winding Down 01:37
15. Deathbed 01:09
16. Kafla's Soul Leaves His Body 00:16
******************************
Total playing time: 39:46



Extended info



Technical info
(IMG:https://metalarea.org/images/spectrogram/2018_May/21e597ba3a6d19b9134d7408d3b41837.png)
Input File: TIMŌRĀTUS - The Great Mortality - 02 Eternal Loss.mp3
Channels : 2
Sample Rate : 44100
Precision : 16-bit
Duration : 00:04:27.15 = 11781447 samples = 20036.5 CDDA sectors
File Size : 10.8M
Bit Rate : 323k
Sample Encoding: MPEG audio (layer I, II or III)
Comments :
Title=Eternal Loss
Artist=TIMЕЊRДЂTUS
Album=The Great Mortality
Tracknumber=2
Year=2018



Register


Вернуться к началу страницы
  Insert nick Quick quote
+Цитировать сообщение
 
Создать новую тему
Replies (1 - 2)
post May 16 2018, 12:11:19
Post #2

Два Литра
**
Group: Завсегдатай
Posts: 137
Releases: 0
From: Россия
On Forums: 6 years 3 months
Thanks: 44 time(s)
Russian Federation


Бесплатный бендкамп



Вернуться к началу страницы
  Insert nick Quick quote
+Цитировать сообщение
post May 16 2018, 17:20:37
Post #3

Восемь Литров
********
Group: Металариец
Posts: 851
Releases: 25
From: Mакеевка
On Forums: 11 years 3 months
Thanks: 457 time(s)
Russian Federation


ну такое, хаотичное немного


Thanks:
(1) nunim,
Вернуться к началу страницы
  Insert nick Quick quote
+Цитировать сообщение

ОтветитьСоздать новую тему
1 User(s) are reading this topic (1 Guests and 0 Anonymous Users)
0 Members:

 



- Lo-Fi Version Support form
Copyrights and abuse reports form
Time is now: 24th May 2018 - 07:18:24