Welcome Guest ( Log In | Register )

> Susurrah - Susurrah (2018), Thrash/Groove Metal
post May 16 2018, 11:45:12
Post #1

Правь статус, ####!111
**************
Group: Металариец
Posts: 14,311
Releases: 9925
From: Г.Харьков
On Forums: 6 years 4 months
Thanks: 162878 time(s)
Unknown


(IMG:https://metalarea.org/images/audiocovers/2018_May/acov_tid305980_thumb.jpg)

*Artist: Susurrah
*Album: Susurrah
*Year: 2018
*Genre: Thrash/Groove Metal
*Country: Spain (IMG:https://metalarea.org/forum/style_images/flags/Spain.png)
*Format: mp3@CBR320kbps
*Size: 114MB

Tracklist:
1.Última Oportunidad
2.Volver
3.Doctor
4.Memoria
5.Déjame
6.No Esperes Más
7.Rey Muerto
8.Esclavo
9.El Juego
10.Soldado
******************************
Total playing time: 48:43



Extended info
Pako Cuadro : Voz
Paco Marín : Guitarra
Santi Guevara : Guitarra
Mark García : Batería
Adrián Grané : Bajo


Technical info
(IMG:https://metalarea.org/images/spectrogram/2018_May/54bd082545dbf9aaaef826ff8feed09a.png)
Input File: 03 Doctor.mp3
Channels : 2
Sample Rate : 44100
Precision : 16-bit
Duration : 00:03:45.59 = 9948563 samples = 16919.3 CDDA sectors
File Size : 9.03M
Bit Rate : 320k
Sample Encoding: MPEG audio (layer I, II or III)
Comments :
Title=Doctor
Artist=Susurrah
Album=Susurrah
Tracknumber=3/10
Year=2018
Genre=Metal
Discnumber=1/1



Register


Go to the top of the page
  Insert nick Quick quote
+Quote Post
 
Start new topic
Replies (1 - 1)
post May 16 2018, 12:28:24
Post #2

MDM-Thrash Metal
**************
Group: Металариец
Posts: 7,070
Releases: 412
From: Одесса
On Forums: 11 years 1 month
Thanks: 13456 time(s)
Ukraine


ЦИТАТА(Samaritianin @ May 16 2018, 13:45:12) *
*Genre: Thrash

(IMG:style_emoticons/default/1488.gif)
Go to the top of the page
  Insert nick Quick quote
+Quote Post

Reply to this topicStart new topic
1 User(s) are reading this topic (1 Guests and 0 Anonymous Users)
0 Members:

 



- Lo-Fi Version Support form
Copyrights and abuse reports form
Time is now: 24th September 2018 - 01:05:24