Welcome Guest ( Log In | Register )

 
Reply to this topicStart new topic
> Lord Follin Beich - Ironique L'univers [demo] (2018), Raw Black Metal
post May 16 2018, 12:15:31
Post #1

Правь статус, ####!616
**************
Group: Металариец
Posts: 4,404
Releases: 3004
From: 55°35’N 38°08’E
On Forums: 10 years 2 months
Thanks: 56506 time(s)
Unknown


(IMG:http://metalarea.org/images/audiocovers/2018_May/acov_tid305981_thumb.jpg)

*Artist: Lord Follin Beich
*Album: Ironique L'univers [demo]
*Year: 2018
*Genre: Raw Black Metal
*Country: Russian Federation (IMG:http://metalarea.org/forum/style_images/flags/Russian%20Federation.png)
*Format: mp3@CBR320kbps
*Size: 30MB

Tracklist:
1. Intro 02:14
2. Dans le monde souterrain 02:31
3. Dans l'oubli 01:34
4. L'esprit de ma tristesse 01:04
5. Forêt mon âme 01:26
6. Obscurité 01:35
7. Abstraite (Outro) 02:20
******************************
Total playing time: 12:44



Technical info
(IMG:http://metalarea.org/images/spectrogram/2018_May/3b9278eccb1e42a4e2f98aaa58f45249.png)
Input File: 02 Dans le monde souterrain.mp3
Channels : 2
Sample Rate : 44100
Precision : 16-bit
Duration : 00:02:31.58 = 6684634 samples = 11368.4 CDDA sectors
File Size : 6.17M
Bit Rate : 326k
Sample Encoding: MPEG audio (layer I, II or III)
Comments :
Title=Dans le monde souterrain
Artist=Lord Follin Beich
Album=Ironique l'univers
Tracknumber=2
Year=2018
Genre=Black Metal



Register


Go to the top of the page
  Insert nick Quick quote
+Quote Post

Reply to this topicStart new topic
1 User(s) are reading this topic (1 Guests and 0 Anonymous Users)
0 Members:

 



- Lo-Fi Version Support form
Copyrights and abuse reports form
Time is now: 24th September 2018 - 00:29:12