Welcome Guest ( Log In | Register )

> Podridão - Podridão (2017), Death Metal
post May 16 2018, 12:40:06
Post #1

Правь статус, ####!111
**************
Group: Металариец
Posts: 14,311
Releases: 9925
From: Г.Харьков
On Forums: 6 years 4 months
Thanks: 162878 time(s)
Unknown


(IMG:https://metalarea.org/images/audiocovers/2018_May/acov_tid305982_thumb.jpg)

*Artist: Podridão
*Album: Podridão
*Year: 2017
*Genre: Death Metal
*Country: Brazil (IMG:https://metalarea.org/forum/style_images/flags/Brazil.png)
*Format: mp3@CBR320kbps
*Size: 68MB

Tracklist:
01. Abduction Nightmare 02:54
02. Darkness Swallows the Light 01:51
03. Drowned Numbs 03:07
04. Ejaculating Pus 02:31
05. Slide to the Grave 02:32
06. Hooked Skin 02:03
07. Slowly Suffocated 04:02
08. Marching to Rot 03:01
09. Orgy with Corpses 03:18
10. Visceral Slaughter 03:22
******************************
Total playing time: 28:41




Extended info
Porn Vicious Bass, Vocals
Repugnant Fat Drums
Rotten Flesh Guitars


Technical info
(IMG:https://metalarea.org/images/spectrogram/2018_May/cbd94ba442264f028257c10388bb29c4.png)
Input File: 03 - Drowned Numbs.mp3
Channels : 2
Sample Rate : 44100
Precision : 16-bit
Duration : 00:03:07.08 = 8250228 samples = 14031 CDDA sectors
File Size : 7.72M
Bit Rate : 330k
Sample Encoding: MPEG audio (layer I, II or III)
Comments :
Title=Drowned Numbs
Artist=PodridГЈo
Album=PodridГЈo
Tracknumber=3/10
Year=2017



Register


Go to the top of the page
  Insert nick Quick quote
+Quote Post
 
Start new topic
Replies (1 - 1)
post May 16 2018, 13:30:11
Post #2

Правь статус, ####!111
**************
Group: Металариец
Posts: 14,311
Releases: 9925
From: Г.Харьков
On Forums: 6 years 4 months
Thanks: 162878 time(s)
Unknown


Register


Thanks:
Go to the top of the page
  Insert nick Quick quote
+Quote Post

Reply to this topicStart new topic
1 User(s) are reading this topic (1 Guests and 0 Anonymous Users)
0 Members:

 



- Lo-Fi Version Support form
Copyrights and abuse reports form
Time is now: 24th September 2018 - 01:19:52