Welcome Guest ( Log In | Register )

> Violet Cold - Sommermorgen (Pt. III) - Nostalgia (2018), Atmospheric/Post-Black Metal (D9)
post May 17 2018, 00:42:56
Post #1

Восемь Литров
********
Group: Металариец
Posts: 819
Releases: 687
From: Новороссийск
On Forums: 7 years 4 months
Thanks: 11609 time(s)
Russian Federation


(IMG:https://metalarea.org/images/audiocovers/2018_May/acov_tid306007_thumb.jpg)

*Artist: Violet Cold
*Album: Sommermorgen (Pt. III) - Nostalgia
*Year: 2018
*Genre: Atmospheric/Post-Black Metal
*Country: Azerbaijan (IMG:https://metalarea.org/forum/style_images/flags/Azerbaijan.png)
*Format: mp3@CBR320kbps
*Size: 92MB

Tracklist:
01. Sommermorgen 05:55
02. Weltschmerz 05:30
03. Ein Hauch Von Ewigkeit 04:47
04. Blütezeit 04:55
05. Langsamer Als Licht 04:52
06. Lebensmüde 04:23
07. Es Kann Niemals Erklärt Werden 04:21
08. Revelation 05:26
******************************
Total playing time: 40:09


Preview 2

Extended info
Violet Cold, опубликовал трилогию альбомов Sommermorgen. Все ее части имеют собственные цвета и исполнены в разных музыкальных стилях.
Первая часть - Innocence, фиолетовый альбом на стыке эмбиента и пост-рока.
Вторая часть - Joy, красный альбом в гитарно-ориентированном пост-роковом стиле.
Третья часть - Nostalgia, черный альбом в более привычном для этого автора металлическом стиле. Официально выходит 1 августа.


Technical info
(IMG:https://metalarea.org/images/spectrogram/2018_May/ef5370d757f4cb979e92e808bfee5de8.png)
Input File: 01. Sommermorgen.mp3
Channels : 2
Sample Rate : 44100
Precision : 16-bit
Duration : 00:05:55.82 = 15691838 samples = 26686.8 CDDA sectors
File Size : 14.2M
Bit Rate : 320k
Sample Encoding: MPEG audio (layer I, II or III)
Comments :
Title=Sommermorgen
Artist=Violet Cold
Album=Sommermorgen (Pt. III) - Nostalgia
Tracknumber=01
Year=2018
Genre=Black Metal



Register


Go to the top of the page
  Insert nick Quick quote
+Quote Post
 
Start new topic
Replies (1 - 7)
post May 17 2018, 11:38:28
Post #2

Group: Дух
Posts: 3
Releases: 0
On Forums: 6 years 3 months
Thanks: 1 time(s)
Switzerland


Thank you! Do you have the other parts aswell?
Go to the top of the page
  Insert nick Quick quote
+Quote Post
post May 17 2018, 14:30:30
Post #3

Восемь Литров
********
Group: Металариец
Posts: 819
Releases: 687
From: Новороссийск
On Forums: 7 years 4 months
Thanks: 11609 time(s)
Russian Federation


ЦИТАТА(Aimr @ May 17 2018, 11:38:28) *
Thank you! Do you have the other parts aswell?

89mb 320kbps mega.nz Violet Cold - Sommermorgen (Pt. II) - Joy (2018)
91mb 320kbps mega.nz Violet Cold - Sommermorgen (Pt. I) - Innocence (2018)


Go to the top of the page
  Insert nick Quick quote
+Quote Post
post May 17 2018, 15:54:57
Post #4

Group: Дух
Posts: 3
Releases: 0
On Forums: 6 years 3 months
Thanks: 1 time(s)
Switzerland


Thanks alot!
Go to the top of the page
  Insert nick Quick quote
+Quote Post
post May 17 2018, 15:58:02
Post #5

Forever Underground
**************
Group: Металариец
Posts: 4,907
Releases: 0
On Forums: 3 years 5 months
Thanks: 4198 time(s)
Unknown


Thanks demenn, but you forgot to hide the other 2 links (post#3) (IMG:style_emoticons/default/bye.gif)
Go to the top of the page
  Insert nick Quick quote
+Quote Post
post May 17 2018, 19:04:58
Post #6

Group: Дух
Posts: 1
Releases: 0
On Forums: 10 months 3 weeks
Thanks: 0 time(s)
El Salvador


Thank you very much!
Go to the top of the page
  Insert nick Quick quote
+Quote Post
post May 19 2018, 07:59:40
Post #7

inactive nahъ
**********
Group: Металариец
Posts: 1,058
Releases: 1
From: Simferopol
On Forums: 11 years 5 months
Thanks: 125 time(s)
Ukraine


кайфанул
очень гармоничный мюзишн
даже на пост блэк не тянет.)
Go to the top of the page
  Insert nick Quick quote
+Quote Post
post May 20 2018, 03:00:32
Post #8

Два Литра
**
Group: Завсегдатай
Posts: 113
Releases: 1
On Forums: 10 years 1 month
Thanks: 105 time(s)
Egypt


Massive thanks for this.
Also for posting the other two parts later on.
Go to the top of the page
  Insert nick Quick quote
+Quote Post

Reply to this topicStart new topic
2 User(s) are reading this topic (2 Guests and 0 Anonymous Users)
0 Members:

 



- Lo-Fi Version Support form
Copyrights and abuse reports form
Time is now: 23rd September 2018 - 05:44:50