Welcome Guest ( Log In | Register )

> 

Здесь релизы с живыми прямыми ссылками на lossless

> Cavus - The New Era (2018), Black Metal (D4)
post May 17 2018, 03:58:08
Post #1
BAN
Banned till
Oct 20 2018, 09:33:06



(IMG:https://metalarea.org/images/audiocovers/2018_May/acov_tid306016_thumb.jpg)

*Artist: Cavus
*Album: The New Era
*Year: 2018
*Genre: Black Metal
*Country: Finland (IMG:https://metalarea.org/forum/style_images/flags/Finland.png)
*Format: mp3@CBR320kbps
*Size: 94MB

Tracklist:
1. The New Era 02:50
2. Killtech 03:37
3. Divine Power 05:22
4. I Watch You Die 03:14
5. Morphine 04:14
6. Calling the Flames 03:44
7. The Strength of Hatred 05:14
8. Presence of Existence 03:44
9. Come to Me Shadows 03:57
10. There Will Be Blood 04:23
******************************
Total playing time: 40:19




Extended info
GooglePlay RipA.R.G. Bass (2007-present)
T.T.T. Drums (2007-present)
B.P. Guitars (2007-present), Vocals (2016-present)
See also: Antagonist Zero, Coprolith, I Lied, ex-Furia, ex-Devilish Impressions, ex-Noctem (live)
J.K Guitars (2007-present)
See also: Coprolith








Technical info
(IMG:https://metalarea.org/images/spectrogram/2018_May/ec6db1e9cd4731c3420ab7f4f339e304.png)
Input File: 03 - Divine Power.mp3
Channels : 2
Sample Rate : 44100
Precision : 16-bit
Duration : 00:05:22.15 = 14206639 samples = 24161 CDDA sectors
File Size : 13.1M
Bit Rate : 326k
Sample Encoding: MPEG audio (layer I, II or III)
Comments :
Title=Divine Power
Artist=Cavus
Album=The New Era
Tracknumber=3/10
Year=2018



Register


Go to the top of the page
  Insert nick Quick quote
+Quote Post
 
Start new topic
Replies (1 - 6)
post May 17 2018, 07:09:06
Post #2
BAN
Banned till
Oct 20 2018, 09:33:06



Register




Go to the top of the page
  Insert nick Quick quote
+Quote Post
post May 21 2018, 06:01:31
Post #3

Все люди - черви.
**********
Group: Металариец
Posts: 1,024
Releases: 118
From: Пхёнъян, Северная Корея
On Forums: 5 years 9 months
Thanks: 3702 time(s)
North Korea


Опять жесткий транскод загрузили (IMG:style_emoticons/default/22.gif)
Go to the top of the page
  Insert nick Quick quote
+Quote Post
post May 21 2018, 07:10:58
Post #4

...
Group Icon
Group: S-moderation team
Posts: 7,190
Releases: 1287
On Forums: 7 years 7 months
Thanks: 35306 time(s)
Croatia


QUOTE(Oath19 @ May 21 2018, 07:01:31) *
Опять жесткий транскод загрузили (IMG:style_emoticons/default/22.gif)
No, band made it this way (IMG:style_emoticons/default/23.gif) I asked satanath (his label released it) and he confirmed it.


Thanks:
Go to the top of the page
  Insert nick Quick quote
+Quote Post
post May 21 2018, 19:22:19
Post #5

Все люди - черви.
**********
Group: Металариец
Posts: 1,024
Releases: 118
From: Пхёнъян, Северная Корея
On Forums: 5 years 9 months
Thanks: 3702 time(s)
North Korea


Borderline1991, есть FLAC?
Go to the top of the page
  Insert nick Quick quote
+Quote Post
post May 21 2018, 19:43:44
Post #6

...
Group Icon
Group: S-moderation team
Posts: 7,190
Releases: 1287
On Forums: 7 years 7 months
Thanks: 35306 time(s)
Croatia


QUOTE(Oath19 @ May 21 2018, 20:22:19) *
Borderline1991, есть FLAC?
Register


Go to the top of the page
  Insert nick Quick quote
+Quote Post
post Aug 5 2018, 08:41:06
Post #7

antithesis
**************
Group: Металариец
Posts: 2,350
Releases: 29
From: VRN
On Forums: 8 years 4 months
Thanks: 1239 time(s)
Russian Federation


ни о чём. крикливая пародия на блэк.
Go to the top of the page
  Insert nick Quick quote
+Quote Post

Reply to this topicStart new topic
1 User(s) are reading this topic (1 Guests and 0 Anonymous Users)
0 Members:

 



- Lo-Fi Version Support form
Copyrights and abuse reports form
Time is now: 20th October 2018 - 02:45:38