Welcome Guest ( Log In | Register )

> Panchrysia - Dogma (2018), Black Metal
post May 17 2018, 04:19:21
Post #1

Правь статус, ####!111
**************
Group: Металариец
Posts: 14,975
Releases: 10262
From: Г.Харьков
On Forums: 6 years 6 months
Thanks: 169270 time(s)
Unknown


(IMG:https://metalarea.org/images/audiocovers/2018_May/acov_tid306017_thumb.jpg)

*Artist: Panchrysia
*Album: Dogma
*Year: 2018
*Genre: Black Metal
*Country: Belgium (IMG:https://metalarea.org/forum/style_images/flags/Belgium.png)
*Format: mp3@CBR320kbps
*Size: 91MB

Tracklist:
1. Each Against All
2. Salvation
3. Gilgamesh
4. Kairos
5. War with Heaven
6. Never to See the Light Again
7. 28 Steps
8. Rats
******************************
Total playing time: 39:08




Extended info
Dol Drums (1998-present)
See also: ex-Darkness By Oath, ex-Infuriated, ex-Within Without
Zahrim Guitars, Vocals (1998-present)
See also: ex-Keltgar, ex-Gorath (live)
Web Guitars (1999-present)
See also: ex-Darkness By Oath, ex-End Of Ernie, ex-Victims Of Society
Joris Bass (2001-present)
See also: ex-The Reckoning










Technical info
(IMG:https://metalarea.org/images/spectrogram/2018_May/09d218af526828916285a46fc1fe11f7.png)
Input File: 02 - Salvation.mp3
Channels : 2
Sample Rate : 44100
Precision : 16-bit
Duration : 00:03:58.60 = 10522172 samples = 17894.9 CDDA sectors
File Size : 9.76M
Bit Rate : 327k
Sample Encoding: MPEG audio (layer I, II or III)
Comments :
Title=Salvation
Artist=Panchrysia
Album=Dogma
Tracknumber=2/8
Year=2018



Register


Go to the top of the page
  Insert nick Quick quote
+Quote Post
 
Start new topic
Replies (1 - 3)
post May 17 2018, 07:05:52
Post #2

Правь статус, ####!111
**************
Group: Металариец
Posts: 14,975
Releases: 10262
From: Г.Харьков
On Forums: 6 years 6 months
Thanks: 169270 time(s)
Unknown


Register


Go to the top of the page
  Insert nick Quick quote
+Quote Post
post May 17 2018, 16:10:36
Post #3

Group: Подсевший
Posts: 24
Releases: 0
On Forums: 2 years 1 month
Thanks: 4 time(s)
Chile


deluxe, thanks men!!


Thanks:
Go to the top of the page
  Insert nick Quick quote
+Quote Post
post Sep 14 2018, 15:46:11
Post #4

добрый мизантроп
***********
Group: Металариец
Posts: 1,555
Releases: 0
From: Минск
On Forums: 8 years 2 days
Thanks: 465 time(s)
Madagascar


Сатанат держит марку
Go to the top of the page
  Insert nick Quick quote
+Quote Post

Reply to this topicStart new topic
1 User(s) are reading this topic (1 Guests and 0 Anonymous Users)
0 Members:

 



- Lo-Fi Version Support form
Copyrights and abuse reports form
Time is now: 17th November 2018 - 01:51:02