Welcome Guest ( Log In | Register )

> Macabre Omen - Olympus [demo] (1996), Epic/Pagan Black Metal
post May 17 2018, 07:42:38
Post #1


Group Icon
Group: S-moderation team
Posts: 8,300
Releases: 1419
On Forums: 7 years 10 months
Thanks: 40382 time(s)
Croatia


(IMG:http://metalarea.org/images/audiocovers/2018_May/acov_tid306020_thumb.jpg)

*Artist: Macabre Omen
*Album: Olympus [demo]
*Year: 1996
*Genre: Epic/Pagan Black Metal
*Country: Greece (IMG:http://metalarea.org/forum/style_images/flags/Greece.png)
*Format: mp3@CBR320kbps
*Size: 15MB

Tracklist:
1. Olympus, Mountain of the Ancient Gods 03:28
2. Cursed Aria 03:14
******************************
Total playing time: 6:42

Technical info
(IMG:http://metalarea.org/images/spectrogram/2018_May/a05559d7219587466b3a9abfe396b93a.png)
Input File: 01 Olympus, Mountain of the Ancient Gods.mp3
Channels : 2
Sample Rate : 48000
Precision : 16-bit
Duration : 00:03:28.45 = 10005648 samples ~ 15633.8 CDDA sectors
File Size : 8.34M
Bit Rate : 320k
Sample Encoding: MPEG audio (layer I, II or III)
Comments :
Title=Olympus, Mountain of the Ancient Gods
Artist=Macabre Omen
Album=Olympus
Tracknumber=1
Year=2015-03-12T19:19:07+02:0ГЄ
Genre=Black Metal



Register


Go to the top of the page
  Insert nick Quick quote
+Quote Post
 
Start new topic
Replies (1 - 2)
post May 17 2018, 17:35:02
Post #2

Мегаманьяк
***********
Group: Металариец
Posts: 1,506
Releases: 23
From: Spain
On Forums: 11 years 4 months
Thanks: 1170 time(s)
Spain


QUOTE


Thanks:
(1) Storky,
Go to the top of the page
  Insert nick Quick quote
+Quote Post
post Sep 15 2018, 08:03:04
Post #3

добрый мизантроп
***********
Group: Металариец
Posts: 1,655
Releases: 0
From: Минск
On Forums: 8 years 2 months
Thanks: 518 time(s)
Madagascar


Кайф...........
Go to the top of the page
  Insert nick Quick quote
+Quote Post

Reply to this topicStart new topic
1 User(s) are reading this topic (1 Guests and 0 Anonymous Users)
0 Members:

 



- Lo-Fi Version Support form
Copyrights and abuse reports form
Time is now: 22nd January 2019 - 23:37:03