Welcome Guest ( Log In | Register )

> Macabre Omen - Olympus [demo] (1996), Epic/Pagan Black Metal
post May 17 2018, 07:42:38
Post #1

...
Group Icon
Group: S-moderation team
Posts: 6,515
Releases: 1275
On Forums: 7 years 5 months
Thanks: 32708 time(s)
Croatia


(IMG:http://metalarea.org/images/audiocovers/2018_May/acov_tid306020_thumb.jpg)

*Artist: Macabre Omen
*Album: Olympus [demo]
*Year: 1996
*Genre: Epic/Pagan Black Metal
*Country: Greece (IMG:http://metalarea.org/forum/style_images/flags/Greece.png)
*Format: mp3@CBR320kbps
*Size: 15MB

Tracklist:
1. Olympus, Mountain of the Ancient Gods 03:28
2. Cursed Aria 03:14
******************************
Total playing time: 6:42

Technical info
(IMG:http://metalarea.org/images/spectrogram/2018_May/a05559d7219587466b3a9abfe396b93a.png)
Input File: 01 Olympus, Mountain of the Ancient Gods.mp3
Channels : 2
Sample Rate : 48000
Precision : 16-bit
Duration : 00:03:28.45 = 10005648 samples ~ 15633.8 CDDA sectors
File Size : 8.34M
Bit Rate : 320k
Sample Encoding: MPEG audio (layer I, II or III)
Comments :
Title=Olympus, Mountain of the Ancient Gods
Artist=Macabre Omen
Album=Olympus
Tracknumber=1
Year=2015-03-12T19:19:07+02:0ГЄ
Genre=Black Metal



Register


Go to the top of the page
  Insert nick Quick quote
+Quote Post
 
Start new topic
Replies (1 - 1)
post May 17 2018, 17:35:02
Post #2

Маньяк
**********
Group: Металариец
Posts: 1,485
Releases: 23
From: Spain
On Forums: 10 years 11 months
Thanks: 1131 time(s)
Spain


QUOTE
Go to the top of the page
  Insert nick Quick quote
+Quote Post

Reply to this topicStart new topic
1 User(s) are reading this topic (1 Guests and 0 Anonymous Users)
0 Members:

 



- Lo-Fi Version Support form
Copyrights and abuse reports form
Time is now: 21st August 2018 - 16:34:20