Welcome Guest ( Log In | Register )

> Pissboiler - In The Lair Of Lucid Nightmares (2017), Drone/Doom Metal
post May 17 2018, 07:49:12
Post #1

...
Group Icon
Group: S-moderation team
Posts: 6,511
Releases: 1275
On Forums: 7 years 5 months
Thanks: 32704 time(s)
Croatia


(IMG:http://metalarea.org/images/audiocovers/2018_May/acov_tid306021_thumb.jpg)

*Artist: Pissboiler
*Album: In The Lair Of Lucid Nightmares
*Year: 2017
*Genre: Drone/Doom Metal
*Country: Sweden (IMG:http://metalarea.org/forum/style_images/flags/Sweden.png)
*Format: mp3@CBR320kbps
*Size: 107MB

Tracklist:
1. Ruins of the Past 17:45
2. Stealth 02:59
3. Pretend It Will End 10:02
4. Cutters 15:21
******************************
Total playing time: 46:07



Technical info
(IMG:http://metalarea.org/images/spectrogram/2018_May/886525d65952b1b0e857d7cee486669f.png)
Input File: 01 - Ruins Of The Past.mp3
Channels : 2
Sample Rate : 44100
Precision : 16-bit
Duration : 00:17:45.29 = 46979465 samples = 79897 CDDA sectors
File Size : 42.8M
Bit Rate : 321k
Sample Encoding: MPEG audio (layer I, II or III)
Comments :
Title=Ruins Of The Past
Artist=Pissboiler
Album=In The Lair Of Lucid Nightmares
Tracknumber=01
Year=2017
Genre=Doom



Register


Go to the top of the page
  Insert nick Quick quote
+Quote Post
 
Start new topic
Replies (1 - 1)
post May 17 2018, 08:23:11
Post #2

####!111
**************
Group: Металариец
Posts: 3,635
Releases: 124
From: The Mountain Of DOOM
On Forums: 10 years 10 months
Thanks: 5084 time(s)
Russian Federation


По-моему, вполне себе фьюнерал, чтоб прям дроун-дум - только в последнем треке
Go to the top of the page
  Insert nick Quick quote
+Quote Post

Reply to this topicStart new topic
1 User(s) are reading this topic (1 Guests and 0 Anonymous Users)
0 Members:

 



- Lo-Fi Version Support form
Copyrights and abuse reports form
Time is now: 21st August 2018 - 10:53:05