Welcome Guest ( Log In | Register )

> Releases Upload / Добавление релизов

Добавить релиз тут / Click here to add release
Рекомендованные обменники / Recommended file shares

> Slaughtered Priest - Iron Chains And Metal Blades (2016), Black/Thrash/Speed Metal
post May 17 2018, 07:56:21
Post #1

...
Group Icon
Group: S-moderation team
Posts: 6,177
Releases: 1276
On Forums: 7 years 2 months
Thanks: 31243 time(s)
Unknown


(IMG:http://metalarea.org/images/audiocovers/2018_May/acov_tid306022_thumb.jpg)

*Artist: Slaughtered Priest
*Album: Iron Chains And Metal Blades
*Year: 2016
*Genre: Black/Thrash/Speed Metal
*Country: Greece (IMG:http://metalarea.org/forum/style_images/flags/Greece.png)
*Format: mp3@CBR320kbps
*Size: 78MB

Tracklist:
1. Tyrant's Legions 01:16
2. Metallic Hellpatrol 04:22
3. Hyperspeed Headbanging 06:05
4. Heavy Metal Chains 05:03
5. Menace 04:07
6. Leather and Blood 04:54
7. Old school Metal Forces 06:27
8. Powermaniac 06:05
******************************
Total playing time: 38:19

Technical info
(IMG:http://metalarea.org/images/spectrogram/2018_May/63e79393ab7e4f94d480fa2ca526e9ed.png)
Input File: 02 - Metallic Hellpatrol.mp3
Channels : 2
Sample Rate : 44100
Precision : 16-bit
Duration : 00:04:23.09 = 11602401 samples = 19732 CDDA sectors
File Size : 10.5M
Bit Rate : 320k
Sample Encoding: MPEG audio (layer I, II or III)
Comments :
Title=Metallic Hellpatrol
Artist=Slaughtered Priest
Album=Iron Chains And Metal Blades
Tracknumber=2
Year=2016



Register


Вернуться к началу страницы
  Insert nick Quick quote
+Цитировать сообщение
 
Создать новую тему
Replies (1 - 3)
post May 18 2018, 13:51:49
Post #2

hearer & reader
**************
Group: Металариец
Posts: 6,216
Releases: 81
From: Moscow
On Forums: 10 years 8 months
Thanks: 6368 time(s)
Russian Federation


Вернуться к началу страницы
  Insert nick Quick quote
+Цитировать сообщение
post May 20 2018, 22:48:04
Post #3

Satan bless you!
**************
Group: Металариец
Posts: 3,073
Releases: 63
From: Москва
On Forums: 9 years 10 months
Thanks: 2673 time(s)
Russian Federation


Качественный блэк/трэш, пока ехал в метро не раз в ритм ножкой подергивал))) (IMG:style_emoticons/default/1488.gif)
Вернуться к началу страницы
  Insert nick Quick quote
+Цитировать сообщение
post May 21 2018, 08:20:09
Post #4

_ - = # Thrashogolic # = - _ ... а давайте поржём все вместе
**************
Group: Металариец
Posts: 20,778
Releases: 4444
From: 404
On Forums: 7 years 11 months
Thanks: 26973 time(s)
Ukraine


ЦИТАТА(RUSP73 @ May 21 2018, 00:48:04) *
Качественный блэк/трэш, пока ехал в метро не раз в ритм ножкой подергивал))) (IMG:style_emoticons/default/1488.gif)
Хорошо, что не на авто - там педали)

(IMG:https://images-na.ssl-images-amazon.com/images/I/51uhAlc7zIL.jpg)
Вернуться к началу страницы
  Insert nick Quick quote
+Цитировать сообщение

ОтветитьСоздать новую тему
1 User(s) are reading this topic (1 Guests and 0 Anonymous Users)
0 Members:

 



- Lo-Fi Version Support form
Copyrights and abuse reports form
Time is now: 25th May 2018 - 04:26:23