Welcome Guest ( Log In | Register )

> Slaughtered Priest - Iron Chains And Metal Blades (2016), Black/Thrash/Speed Metal
post May 17 2018, 07:56:21
Post #1

...
Group Icon
Group: S-moderation team
Posts: 6,511
Releases: 1275
On Forums: 7 years 5 months
Thanks: 32704 time(s)
Croatia


(IMG:http://metalarea.org/images/audiocovers/2018_May/acov_tid306022_thumb.jpg)

*Artist: Slaughtered Priest
*Album: Iron Chains And Metal Blades
*Year: 2016
*Genre: Black/Thrash/Speed Metal
*Country: Greece (IMG:http://metalarea.org/forum/style_images/flags/Greece.png)
*Format: mp3@CBR320kbps
*Size: 78MB

Tracklist:
1. Tyrant's Legions 01:16
2. Metallic Hellpatrol 04:22
3. Hyperspeed Headbanging 06:05
4. Heavy Metal Chains 05:03
5. Menace 04:07
6. Leather and Blood 04:54
7. Old school Metal Forces 06:27
8. Powermaniac 06:05
******************************
Total playing time: 38:19

Technical info
(IMG:http://metalarea.org/images/spectrogram/2018_May/63e79393ab7e4f94d480fa2ca526e9ed.png)
Input File: 02 - Metallic Hellpatrol.mp3
Channels : 2
Sample Rate : 44100
Precision : 16-bit
Duration : 00:04:23.09 = 11602401 samples = 19732 CDDA sectors
File Size : 10.5M
Bit Rate : 320k
Sample Encoding: MPEG audio (layer I, II or III)
Comments :
Title=Metallic Hellpatrol
Artist=Slaughtered Priest
Album=Iron Chains And Metal Blades
Tracknumber=2
Year=2016



Register


Go to the top of the page
  Insert nick Quick quote
+Quote Post
 
Start new topic
Replies (1 - 3)
post May 18 2018, 13:51:49
Post #2

hearer & reader
**************
Group: Металариец
Posts: 6,696
Releases: 84
From: Moscow
On Forums: 10 years 11 months
Thanks: 6554 time(s)
Russian Federation


Go to the top of the page
  Insert nick Quick quote
+Quote Post
post May 20 2018, 22:48:04
Post #3

Satan bless you!
**************
Group: Металариец
Posts: 3,206
Releases: 63
From: Москва
On Forums: 10 years 1 month
Thanks: 2757 time(s)
Russian Federation


Качественный блэк/трэш, пока ехал в метро не раз в ритм ножкой подергивал))) (IMG:style_emoticons/default/1488.gif)
Go to the top of the page
  Insert nick Quick quote
+Quote Post
post May 21 2018, 08:20:09
Post #4

_ - = # Thrashogolic # = - _ ... а давайте поржём все вместе
**************
Group: Металариец
Posts: 20,921
Releases: 4444
From: 404
On Forums: 8 years 2 months
Thanks: 27087 time(s)
Ukraine


ЦИТАТА(RUSP73 @ May 21 2018, 00:48:04) *
Качественный блэк/трэш, пока ехал в метро не раз в ритм ножкой подергивал))) (IMG:style_emoticons/default/1488.gif)
Хорошо, что не на авто - там педали)

(IMG:https://images-na.ssl-images-amazon.com/images/I/51uhAlc7zIL.jpg)
Go to the top of the page
  Insert nick Quick quote
+Quote Post

Reply to this topicStart new topic
1 User(s) are reading this topic (1 Guests and 0 Anonymous Users)
0 Members:

 



- Lo-Fi Version Support form
Copyrights and abuse reports form
Time is now: 21st August 2018 - 10:53:17