Welcome Guest ( Log In | Register )

> Strangle Wire - The Dark Triad [ep] (2018), Death Metal
post May 17 2018, 08:06:34
Post #1

Правь статус, ####!111
**************
Group: Металариец
Posts: 13,950
Releases: 9735
From: Г.Харьков
On Forums: 6 years 3 months
Thanks: 159790 time(s)
Unknown


(IMG:https://metalarea.org/images/audiocovers/2018_May/acov_tid306023_thumb.jpg)

*Artist: Strangle Wire
*Album: The Dark Triad [ep]
*Year: 2018
*Genre: Death Metal
*Country: United Kingdom (IMG:https://metalarea.org/forum/style_images/flags/United%20Kingdom.png)
*Format: mp3@CBR320kbps
*Size: 56MB

Tracklist:
01. The Games They Play
02. The Narcissist
03. Psychopathic Blue
04. The Failure Exhibit
05. Through a Black Lens
06. Den of Iniquity
******************************
Total playing time: 23:48



Extended info
Daff Bass
John Drums
Ross Guitars
Pete Vocals



Technical info
(IMG:https://metalarea.org/images/spectrogram/2018_May/b789c93487d751234081ebef7ef69794.png)
Input File: 02. The Narcissist.mp3
Channels : 2
Sample Rate : 44100
Precision : 16-bit
Duration : 00:00:00.27 = 11731 samples = 19.9507 CDDA sectors
File Size : 10.9M
Bit Rate : 327M
Sample Encoding: MPEG audio (layer I, II or III)
Comments :
Title=The Narcissist
Artist=Strangle Wire
Album=The Dark Triad
Tracknumber=2/6
Year=2018-18-20
Discnumber=1/1



Register


Go to the top of the page
  Insert nick Quick quote
+Quote Post
 
Start new topic
Replies (1 - 2)
post May 17 2018, 14:36:14
Post #2

MDM-Thrash Metal
**************
Group: Металариец
Posts: 6,964
Releases: 412
From: Одесса
On Forums: 11 years 1 week
Thanks: 13266 time(s)
Ukraine


Register
Go to the top of the page
  Insert nick Quick quote
+Quote Post
post May 17 2018, 22:43:46
Post #3

Crush The Enemies
**************
Group: Металариец
Posts: 4,113
Releases: 0
From: Moscow
On Forums: 8 years 11 months
Thanks: 2125 time(s)
Russian Federation



Ничего нового не изобрели,но очень добротно валят англосаксы - есть хороший кач,саунд на высоте и что самое приятное,прибруталенный гроул отлично вписался во всю эту мясорубку! (IMG:style_emoticons/default/metaler.gif) (IMG:style_emoticons/default/metaler.gif) (IMG:style_emoticons/default/metaler.gif)


Thanks:
(1) BLOODBATH,
Go to the top of the page
  Insert nick Quick quote
+Quote Post

Reply to this topicStart new topic
1 User(s) are reading this topic (1 Guests and 0 Anonymous Users)
0 Members:

 



- Lo-Fi Version Support form
Copyrights and abuse reports form
Time is now: 21st August 2018 - 10:53:00