Welcome Guest ( Log In | Register )

 
Reply to this topicStart new topic
> Rosetta - Rosetta On Audiotree Live [live] (2018), Post-Metal/Sludge
post May 17 2018, 09:27:43
Post #1

Три Литра
***
Group: Завсегдатай
Posts: 216
Releases: 86
From: Helvetia
On Forums: 5 years 6 months
Thanks: 1364 time(s)
Switzerland


(IMG:https://metalarea.org/images/audiocovers/2018_May/acov_tid306026_thumb.jpg)

*Artist: Rosetta
*Album: Rosetta On Audiotree Live [live]
*Year: 2018
*Genre: Post-Metal/Sludge
*Country: United States (IMG:https://metalarea.org/forum/style_images/flags/United%20States.png)
*Format: mp3@CBR320kbps
*Size: 62MB

Tracklist:
01. Détente 6:46
02. Oku / The Secrets 6:10
03. Untitled III 6:29
04. Qohelet 7:26
******************************
Total playing time: 26:51

(IMG:https://metalarea.org/images/youtube.png)



Extended info
Recorded on April 24, 2018 in Chicago, IL.


Technical info
(IMG:https://metalarea.org/images/spectrogram/2018_May/c0c9996c56daa25adde4b015a718b135.png)
Input File: 03. Untitled III (Audiotree Live Version).mp3
Channels : 2
Sample Rate : 44100
Precision : 16-bit
Duration : 00:06:29.50 = 17176906 samples = 29212.4 CDDA sectors
File Size : 15.7M
Bit Rate : 323k
Sample Encoding: MPEG audio (layer I, II or III)
Comments :
Title=Untitled III (Audiotree Live Version)
Artist=Rosetta
Album=Rosetta on Audiotree Live
Tracknumber=03
Year=2018
Genre=Heavy Metal



Register


Go to the top of the page
  Insert nick Quick quote
+Quote Post

Reply to this topicStart new topic
1 User(s) are reading this topic (1 Guests and 0 Anonymous Users)
0 Members:

 



- Lo-Fi Version Support form
Copyrights and abuse reports form
Time is now: 21st August 2018 - 10:54:01