Welcome Guest ( Log In | Register )

> И неформату есть предел.

Рэп/хип-хоп/шансон/поп удаляются. Для них есть свои порталы.

> Willow Child - Paradise & Nadir (2018), Psychedelic/Blues Rock
post May 17 2018, 09:51:25
Post #1

напряжный чувак (с)
***********
Group: Металариец
Posts: 1,794
Releases: 22
From: Киев
On Forums: 11 years 4 months
Thanks: 2326 time(s)
Ukraine


(IMG:https://metalarea.org/images/audiocovers/2018_May/acov_tid306027_thumb.jpg)

*Artist: Willow Child
*Album: Paradise & Nadir
*Year: 2018
*Genre: Psychedelic/Blues Rock
*Country: Germany (IMG:https://metalarea.org/forum/style_images/flags/Germany.png)
*Format: mp3@CBR320kbps
*Size: 85MB

Tracklist:
01. Little Owl 06:25
02. Eirene 03:58
03. Land Of Sloe 05:28
04. Starry Road 04:32
05. Beyond The Blue Fields 07:00
06. Red Wood 04:22
07. Mayflies 05:34
08. Unspoken 03:56
******************************
Total playing time: 41:15

(IMG:https://metalarea.org/images/youtube.png)

Technical info
(IMG:https://metalarea.org/images/spectrogram/2018_May/bb8aaf3803dc59ecad0fe3d509cfad9c.png)
Input File: 03 - Land Of Sloe.mp3
Channels : 2
Sample Rate : 44100
Precision : 16-bit
Duration : 00:05:28.89 = 14504005 samples = 24666.7 CDDA sectors
File Size : 13.3M
Bit Rate : 322k
Sample Encoding: MPEG audio (layer I, II or III)
Comments :
Title=Land Of Sloe
Artist=Willow Child
Album=Paradise & Nadir
Tracknumber=03
Year=2018
Genre=Psychedelic/Blues Rock



Register


Go to the top of the page
  Insert nick Quick quote
+Quote Post
 
Start new topic
Replies (1 - 2)
post May 17 2018, 13:31:56
Post #2

South Of Heaven /адепт ВУДУ
**************
Group: Металариец
Posts: 12,541
Releases: 7
From: Санкт-Петербург
On Forums: 8 years 2 months
Thanks: 4507 time(s)
Russian Federation


Отлично же, у них ещё ипишка есть за прошлый год, откуда ни один трэк не по попал на альбом этот, который дебютный.
Go to the top of the page
  Insert nick Quick quote
+Quote Post
post May 18 2018, 00:33:42
Post #3

Правь статус, ####!111
**************
Group: Металариец
Posts: 5,133
Releases: 0
From: Primorye.ru
On Forums: 7 years 2 months
Thanks: 976 time(s)
Russian Federation




Thanks:
(1) gena,
Go to the top of the page
  Insert nick Quick quote
+Quote Post

Reply to this topicStart new topic
1 User(s) are reading this topic (1 Guests and 0 Anonymous Users)
0 Members:

 



- Lo-Fi Version Support form
Copyrights and abuse reports form
Time is now: 23rd June 2018 - 18:44:52