Welcome Guest ( Log In | Register )

 
Reply to this topicStart new topic
> Capraphagos - Panzerotto Division Capraphagos (2018), Grindcore
post May 17 2018, 10:12:34
Post #1

Serial Uploader
Group Icon
Group: V.I.P
Posts: 33,127
Releases: 31411
From: Lithuania
On Forums: 10 years 4 months
Thanks: 359222 time(s)
Lithuania


(IMG:https://metalarea.org/images/audiocovers/2018_May/acov_tid306028_thumb.jpg)

*Artist: Capraphagos
*Album: Panzerotto Division Capraphagos
*Year: 2018
*Genre: Grindcore
*Country: Italy (IMG:https://metalarea.org/forum/style_images/flags/Italy.png)
*Format: mp3@CBR320kbps
*Size: 45MB

Tracklist:
01. Intro
02. Scared Lamb
03. Omelette De France
04. Marcetto
05. Mengacci
06. Il Trocco
07. Al Mattino
08. Brew Dog
09. Miracle Blade
10. Satan's Breakfast
11. Nocturnal Winter Invocation Of Infernal Roman Chicken Sora Lella
12. Magalli
13. Outro
******************************
Total playing time: 17:19



Technical info
(IMG:https://metalarea.org/images/spectrogram/2018_May/65bbb210dc9cd8587b797a858d3e7d6d.png)
Input File: 02. Scared Lamb.mp3
Channels : 2
Sample Rate : 44100
Precision : 16-bit
Duration : 00:01:38.08 = 4325152 samples = 7355.7 CDDA sectors
File Size : 4.29M
Bit Rate : 350k
Sample Encoding: MPEG audio (layer I, II or III)
Comments :
Title=Scared Lamb
Artist=Capraphagos
Album=Panzerotto Division Capraphagos
Tracknumber=2/13
Year=2018
Genre=Metal
Discnumber=1/1



Register


Go to the top of the page
  Insert nick Quick quote
+Quote Post

Reply to this topicStart new topic
1 User(s) are reading this topic (1 Guests and 0 Anonymous Users)
0 Members:

 



- Lo-Fi Version Support form
Copyrights and abuse reports form
Time is now: 18th October 2018 - 12:31:55