Welcome Guest ( Log In | Register )

> Releases Upload / Добавление релизов

Добавить релиз тут / Click here to add release
Рекомендованные обменники / Recommended file shares

 
ОтветитьСоздать новую тему
> Agoriz - Tottem (2018), Death/Groove Metal
post May 17 2018, 10:38:28
Post #1

Serial Uploader
Group Icon
Group: V.I.P
Posts: 32,509
Releases: 30792
From: Lithuania
On Forums: 9 years 11 months
Thanks: 353691 time(s)
Lithuania


(IMG:https://metalarea.org/images/audiocovers/2018_May/acov_tid306029_thumb.jpg)

*Artist: Agoriz
*Album: Tottem
*Year: 2018
*Genre: Death/Groove Metal
*Country: Bolivia (IMG:https://metalarea.org/forum/style_images/flags/Bolivia.png)
*Format: mp3@CBR320kbps
*Size: 85MB

Tracklist:
01. Aeonian
02. Swarm
03. Tanatofobia
04. Beyond The Void
05. Situs Inversus
06. Fe De Errata
07. The Dying Light
08. Antropofagia
09. Darkness Within
10. Transient
******************************
Total playing time: 37:32

(IMG:https://metalarea.org/images/myspace.png)




Technical info
(IMG:https://metalarea.org/images/spectrogram/2018_May/802bbf0903a831886e5d63d36572d770.png)
Input File: 02. Swarm.mp3
Channels : 2
Sample Rate : 44100
Precision : 16-bit
Duration : 00:05:22.99 = 14243639 samples = 24223.9 CDDA sectors
File Size : 12.9M
Bit Rate : 320k
Sample Encoding: MPEG audio (layer I, II or III)
Comments :
Title=Swarm
Artist=Agoriz
Album=Tottem
Tracknumber=2/10
Year=2018



Register


Вернуться к началу страницы
  Insert nick Quick quote
+Цитировать сообщение

ОтветитьСоздать новую тему
1 User(s) are reading this topic (1 Guests and 0 Anonymous Users)
0 Members:

 



- Lo-Fi Version Support form
Copyrights and abuse reports form
Time is now: 25th May 2018 - 04:28:13