Welcome Guest ( Log In | Register )

> Releases Upload / Добавление релизов

Добавить релиз тут / Click here to add release
Рекомендованные обменники / Recommended file shares

 
ОтветитьСоздать новую тему
> Burn The Priest - Legion: XX (2018), Groove/Death Metal (D5)
post May 17 2018, 11:18:21
Post #1

Serial Uploader
Group Icon
Group: V.I.P
Posts: 32,509
Releases: 30792
From: Lithuania
On Forums: 9 years 11 months
Thanks: 353690 time(s)
Lithuania


(IMG:https://metalarea.org/images/audiocovers/2018_May/acov_tid306030_thumb.jpg)

*Artist: Burn The Priest
*Album: Legion: XX
*Year: 2018
*Genre: Groove/Death Metal
*Country: United States (IMG:https://metalarea.org/forum/style_images/flags/United%20States.png)
*Format: mp3@CBR320kbps
*Size: 87MB

Tracklist:
01. Inherit The Earth (The Accüsed Cover) 03:28
02. Honey Bucket (Melvins Cover) 02:43
03. Kerosene (Big Black Cover) 06:13
04. Kill Yourself (S.O.D. Cover) 02:18
05. I Against I (Bad Brains Cover) 03:50
06. Axis Rot (Sliang Laos Cover) 03:04
07. Jesus Built My Hotrod (Ministry Cover) 06:13
08. One Voice (Agnostic Front Cover) 03:16
09. Dine Alone (Quicksand Cover) 03:31
10. We Gotta Know (Cro-Mags Cover) 03:28
******************************
Total playing time: 38:04

(IMG:https://metalarea.org/images/myspace.png)
(IMG:https://metalarea.org/images/youtube.png)

Technical info
(IMG:https://metalarea.org/images/spectrogram/2018_May/c901b6fc3a47f115018374837c9e3582.png)
Input File: 02. Honey Bucket.mp3
Channels : 2
Sample Rate : 44100
Precision : 16-bit
Duration : 00:00:00.16 = 7188 samples = 12.2245 CDDA sectors
File Size : 6.53M
Bit Rate : 320M
Sample Encoding: MPEG audio (layer I, II or III)
Comments :
Title=Honey Bucket
Artist=Burn the Priest
Album=Legion: XX
Tracknumber=2/10
Year=2018
Genre=Metal
Discnumber=1/1



Register


Вернуться к началу страницы
  Insert nick Quick quote
+Цитировать сообщение

ОтветитьСоздать новую тему
1 User(s) are reading this topic (1 Guests and 0 Anonymous Users)
0 Members:

 



- Lo-Fi Version Support form
Copyrights and abuse reports form
Time is now: 25th May 2018 - 04:22:21