Welcome Guest ( Log In | Register )

> Releases Upload / Добавление релизов

Добавить релиз тут / Click here to add release
Рекомендованные обменники / Recommended file shares

> Overkill - Live In Overhausen [live] (2018), Thrash/Groove Metal
post May 17 2018, 11:33:02
Post #1

Serial Uploader
Group Icon
Group: V.I.P
Posts: 32,509
Releases: 30792
From: Lithuania
On Forums: 9 years 11 months
Thanks: 353690 time(s)
Lithuania


(IMG:https://metalarea.org/images/audiocovers/2018_May/acov_tid306031_thumb.jpg)

*Artist: Overkill
*Album: Live In Overhausen [live]
*Year: 2018
*Genre: Thrash/Groove Metal
*Country: United States (IMG:https://metalarea.org/forum/style_images/flags/United%20States.png)
*Format: mp3@CBR320kbps
*Size: 270MB

Tracklist:
01. Coma
02. Infectious
03. Blood Money
04. Thanx For Nothin'
05. Bare Bones
06. Horrorscope
07. New Machine
08. Frankenstein
09. Live Young Die Free
10. Nice Day - For A Funeral
11. Soulitude
12. Raise The Dead
13. Rotten To The Core
14. There's No Tomorrow
15. Second Son
16. Hammerhead
17. Feel The Fire
18. Blood And Iron
19. Kill At Command
20. Overkill
21. Fuck You
******************************
Total playing time: 1:57:31

(IMG:https://metalarea.org/images/myspace.png)


Technical info
(IMG:https://metalarea.org/images/spectrogram/2018_May/23d95222275a94364856a24359eb5b70.png)
Input File: 02. Infectious (Live).mp3
Channels : 2
Sample Rate : 44100
Precision : 16-bit
Duration : 00:04:09.28 = 10993380 samples = 18696.2 CDDA sectors
File Size : 10.7M
Bit Rate : 344k
Sample Encoding: MPEG audio (layer I, II or III)
Comments :
Title=Infectious (Live)
Artist=Overkill
Album=Live in Overhausen
Tracknumber=2/21
Year=2018
Genre=Metal
Discnumber=1/1



Register


Вернуться к началу страницы
  Insert nick Quick quote
+Цитировать сообщение
 
Создать новую тему
Replies (1 - 2)
post May 17 2018, 14:54:59
Post #2

MDM-Thrash Metal
**************
Group: Металариец
Posts: 6,684
Releases: 410
From: Одесса
On Forums: 10 years 9 months
Thanks: 12738 time(s)
Ukraine






На концертнике - полностью сыграны 2 альбома: Horrorscope - 1991 и Feel the Fire - 1985


Вернуться к началу страницы
  Insert nick Quick quote
+Цитировать сообщение
post May 17 2018, 18:38:13
Post #3

Шесть Литров
******
Group: Металариец
Posts: 501
Releases: 183
From: Serbia,Vrsac
On Forums: 10 years 11 months
Thanks: 1676 time(s)
Serbia


Mirror:

Register


Thanks:
Вернуться к началу страницы
  Insert nick Quick quote
+Цитировать сообщение

ОтветитьСоздать новую тему
1 User(s) are reading this topic (1 Guests and 0 Anonymous Users)
0 Members:

 



- Lo-Fi Version Support form
Copyrights and abuse reports form
Time is now: 25th May 2018 - 04:24:27