Welcome Guest ( Log In | Register )

> Overkill - Live In Overhausen [live] (2018), Thrash/Groove Metal
post May 17 2018, 11:33:02
Post #1

Serial Uploader
Group Icon
Group: V.I.P
Posts: 33,128
Releases: 31412
From: Lithuania
On Forums: 10 years 4 months
Thanks: 359222 time(s)
Lithuania


(IMG:https://metalarea.org/images/audiocovers/2018_May/acov_tid306031_thumb.jpg)

*Artist: Overkill
*Album: Live In Overhausen [live]
*Year: 2018
*Genre: Thrash/Groove Metal
*Country: United States (IMG:https://metalarea.org/forum/style_images/flags/United%20States.png)
*Format: mp3@CBR320kbps
*Size: 270MB

Tracklist:
01. Coma
02. Infectious
03. Blood Money
04. Thanx For Nothin'
05. Bare Bones
06. Horrorscope
07. New Machine
08. Frankenstein
09. Live Young Die Free
10. Nice Day - For A Funeral
11. Soulitude
12. Raise The Dead
13. Rotten To The Core
14. There's No Tomorrow
15. Second Son
16. Hammerhead
17. Feel The Fire
18. Blood And Iron
19. Kill At Command
20. Overkill
21. Fuck You
******************************
Total playing time: 1:57:31

(IMG:https://metalarea.org/images/myspace.png)


Technical info
(IMG:https://metalarea.org/images/spectrogram/2018_May/23d95222275a94364856a24359eb5b70.png)
Input File: 02. Infectious (Live).mp3
Channels : 2
Sample Rate : 44100
Precision : 16-bit
Duration : 00:04:09.28 = 10993380 samples = 18696.2 CDDA sectors
File Size : 10.7M
Bit Rate : 344k
Sample Encoding: MPEG audio (layer I, II or III)
Comments :
Title=Infectious (Live)
Artist=Overkill
Album=Live in Overhausen
Tracknumber=2/21
Year=2018
Genre=Metal
Discnumber=1/1



Register


Go to the top of the page
  Insert nick Quick quote
+Quote Post
 
Start new topic
Replies (1 - 3)
post May 17 2018, 14:54:59
Post #2

MDM-Thrash Metal
**************
Group: Металариец
Posts: 7,155
Releases: 421
From: Одесса
On Forums: 11 years 2 months
Thanks: 13645 time(s)
Ukraine






На концертнике - полностью сыграны 2 альбома: Horrorscope - 1991 и Feel the Fire - 1985


Go to the top of the page
  Insert nick Quick quote
+Quote Post
post May 17 2018, 18:38:13
Post #3

Шесть Литров
******
Group: Металариец
Posts: 501
Releases: 183
From: Serbia,Vrsac
On Forums: 11 years 4 months
Thanks: 1679 time(s)
Serbia


Mirror:

Register


Go to the top of the page
  Insert nick Quick quote
+Quote Post
post Jun 8 2018, 10:20:38
Post #4

...Only Death Is Real...
**************
Group: Металариец
Posts: 2,666
Releases: 15
On Forums: 8 years 2 months
Thanks: 1646 time(s)
Russian Federation


Register
Go to the top of the page
  Insert nick Quick quote
+Quote Post

Reply to this topicStart new topic
1 User(s) are reading this topic (1 Guests and 0 Anonymous Users)
0 Members:

 



- Lo-Fi Version Support form
Copyrights and abuse reports form
Time is now: 18th October 2018 - 13:10:48