Welcome Guest ( Log In | Register )

 
Reply to this topicStart new topic
> Grayceon - IV (2018), Avant-Garde/Progressive Metal
post May 17 2018, 11:45:36
Post #1

Serial Uploader
Group Icon
Group: V.I.P
Posts: 33,128
Releases: 31412
From: Lithuania
On Forums: 10 years 4 months
Thanks: 359222 time(s)
Lithuania


(IMG:https://metalarea.org/images/audiocovers/2018_May/acov_tid306033_thumb.jpg)

*Artist: Grayceon
*Album: IV
*Year: 2018
*Genre: Avant-Garde/Progressive Metal
*Country: United States (IMG:https://metalarea.org/forum/style_images/flags/United%20States.png)
*Format: mp3@CBR320kbps
*Size: 95MB

Tracklist:
01. Sliver Moon 04:31
02. By-The-Wind Sailors 05:27
03. Scorpion 04:40
04. Let It Go 06:23
05. Slow Burn 05:52
06. The Point Of Me 03:14
07. Pink Rose 02:31
08. Dreamers 07:38
******************************
Total playing time: 40:16

(IMG:https://metalarea.org/images/myspace.png)



Technical info
(IMG:https://metalarea.org/images/spectrogram/2018_May/627b0ab4b8b155769404c105c6c2c447.png)
Input File: 02. By-the-Wind Sailors.mp3
Channels : 2
Sample Rate : 44100
Precision : 16-bit
Duration : 00:05:27.71 = 14452011 samples = 24578.2 CDDA sectors
File Size : 13.5M
Bit Rate : 329k
Sample Encoding: MPEG audio (layer I, II or III)
Comments :
Title=By-the-Wind Sailors
Artist=Grayceon
Album=IV
Tracknumber=2/8
Year=2018
Genre=Alternative
Discnumber=1/1



Register


Go to the top of the page
  Insert nick Quick quote
+Quote Post

Reply to this topicStart new topic
1 User(s) are reading this topic (1 Guests and 0 Anonymous Users)
0 Members:

 



- Lo-Fi Version Support form
Copyrights and abuse reports form
Time is now: 18th October 2018 - 13:23:36