Welcome Guest ( Log In | Register )

 
Reply to this topicStart new topic
> Morag Tong - Last Knell Of Om (2018), Stoner/Doom Metal
post May 17 2018, 11:56:05
Post #1

Serial Uploader
Group Icon
Group: V.I.P
Posts: 32,950
Releases: 31244
From: Lithuania
On Forums: 10 years 2 months
Thanks: 357683 time(s)
Lithuania


(IMG:https://metalarea.org/images/audiocovers/2018_May/acov_tid306034_thumb.jpg)

*Artist: Morag Tong
*Album: Last Knell Of Om
*Year: 2018
*Genre: Stoner/Doom Metal
*Country: United Kingdom (IMG:https://metalarea.org/forum/style_images/flags/United%20Kingdom.png)
*Format: mp3@CBR320kbps
*Size: 116MB

Tracklist:
01. Transmission
02. New Growth
03. We Answer
04. To Soil
05. Ruminations
06. Ephemera/ Stare Through The Deep
******************************
Total playing time: 48:25





Technical info
(IMG:https://metalarea.org/images/spectrogram/2018_May/71ce4d597783bea2b64e3c868e15e59d.png)
Input File: 02. New Growth.mp3
Channels : 2
Sample Rate : 44100
Precision : 16-bit
Duration : 00:07:54.69 = 20933785 samples = 35601.7 CDDA sectors
File Size : 19.9M
Bit Rate : 335k
Sample Encoding: MPEG audio (layer I, II or III)
Comments :
Title=New Growth
Artist=Morag Tong
Album=Last Knell of Om
Tracknumber=2/6
Year=2018
Genre=Metal
Discnumber=1/1



Register


Go to the top of the page
  Insert nick Quick quote
+Quote Post

Reply to this topicStart new topic
1 User(s) are reading this topic (1 Guests and 0 Anonymous Users)
0 Members:

 



- Lo-Fi Version Support form
Copyrights and abuse reports form
Time is now: 21st August 2018 - 10:53:59