Welcome Guest ( Log In | Register )

> Nocturnal Graves - Titan (2018), Black/Thrash Metal
post May 17 2018, 12:04:58
Post #1

Serial Uploader
Group Icon
Group: V.I.P
Posts: 33,135
Releases: 31419
From: Lithuania
On Forums: 10 years 4 months
Thanks: 359277 time(s)
Lithuania


(IMG:https://metalarea.org/images/audiocovers/2018_May/acov_tid306035_thumb.jpg)

*Artist: Nocturnal Graves
*Album: Titan
*Year: 2018
*Genre: Black/Thrash Metal
*Country: Australia (IMG:https://metalarea.org/forum/style_images/flags/Australia.png)
*Format: mp3@CBR320kbps
*Size: 91MB

Tracklist:
01. Resistance 06:44
02. Roar Of The Wild 03:41
03. Ecdysis, Shedding Weak Flesh 06:13
04. Souls Tribulation 03:42
05. And Hell Followed Them 04:15
06. Bow Before None 06:07
07. Silence The Martyrs 03:34
08. Titan 05:27
******************************
Total playing time: 39:43

(IMG:https://metalarea.org/images/myspace.png)


(IMG:https://metalarea.org/images/youtube.png)

Technical info
(IMG:https://metalarea.org/images/spectrogram/2018_May/e0ca9e17ab49bbdce84fdbfb261c41f7.png)
Input File: 02. Roar of the Wild.mp3
Channels : 2
Sample Rate : 44100
Precision : 16-bit
Duration : 00:00:00.22 = 9746 samples = 16.5748 CDDA sectors
File Size : 8.85M
Bit Rate : 320M
Sample Encoding: MPEG audio (layer I, II or III)
Comments :
Title=Roar of the Wild
Artist=Nocturnal Graves
Album=Titan
Tracknumber=2/8
Year=2018
Genre=Rock
Discnumber=1/1



Register


Go to the top of the page
  Insert nick Quick quote
+Quote Post
 
Start new topic
Replies (1 - 9)
post May 17 2018, 14:40:35
Post #2

MDM-Thrash Metal
**************
Group: Металариец
Posts: 7,162
Releases: 421
From: Одесса
On Forums: 11 years 2 months
Thanks: 13658 time(s)
Ukraine


Register


Go to the top of the page
  Insert nick Quick quote
+Quote Post
post May 17 2018, 19:18:44
Post #3

Маньяк
**********
Group: Металариец
Posts: 1,259
Releases: 0
On Forums: 10 years 8 months
Thanks: 494 time(s)
Russian Federation


Этот альбом не исключение из хорошего австралийского black thrash metal.
Go to the top of the page
  Insert nick Quick quote
+Quote Post
post May 17 2018, 19:43:10
Post #4

Правь статус, ####!111
**************
Group: Металариец
Posts: 2,670
Releases: 0
From: Одесса
On Forums: 10 years 7 months
Thanks: 1060 time(s)
Ukraine


More Death than Thrash, even according to the band themselves.


Thanks:
(1) Diflock,
Go to the top of the page
  Insert nick Quick quote
+Quote Post
post May 18 2018, 05:06:47
Post #5

Все люди - черви.
**********
Group: Металариец
Posts: 1,024
Releases: 118
From: Пхёнъян, Северная Корея
On Forums: 5 years 9 months
Thanks: 3702 time(s)
North Korea


Что со спектрами? (IMG:style_emoticons/default/1488.gif)


Go to the top of the page
  Insert nick Quick quote
+Quote Post
post May 18 2018, 10:22:29
Post #6

_ - = # Thrashogolic # = - _ ... а давайте поржём все вместе
**************
Group: Металариец
Posts: 21,000
Releases: 4444
From: 404
On Forums: 8 years 4 months
Thanks: 27203 time(s)
Ukraine


ЦИТАТА(Oath19 @ May 18 2018, 07:06:47) *
Что со спектрами? (IMG:style_emoticons/default/1488.gif)
У некроскама отпуск,
А в отпуске - дайвинг (это вообще-то в инсту предназначалось, но попало в спектры ) (IMG:style_emoticons/default/1488.gif)
Go to the top of the page
  Insert nick Quick quote
+Quote Post
post May 20 2018, 12:15:53
Post #7

for me your flesh
*******
Group: Металариец
Posts: 706
Releases: 0
On Forums: 1 year 2 months
Thanks: 521 time(s)
Unknown


Весьма неплохо наваливают, скоростные проходы сменяются замедлениями, всё это приправлено ненавязчивыми соло. Вроде всё слишком банально, но слушается с удовольствием.
Go to the top of the page
  Insert nick Quick quote
+Quote Post
post May 21 2018, 18:15:42
Post #8

Четыре Литра
****
Group: Металариец
Posts: 300
Releases: 0
On Forums: 11 months 3 weeks
Thanks: 116 time(s)
Unknown


Музыка без особых изысков, но драйв и угар который она несет ни с чем не сравним. Мешанина из Thrash/Death/Black Metal не дала заскучать на протяжении почти всех не полных 40 минут
Go to the top of the page
  Insert nick Quick quote
+Quote Post
post May 21 2018, 19:18:38
Post #9

Full-of-Hate
**************
Group: Металариец
Posts: 2,176
Releases: 0
On Forums: 9 years 3 months
Thanks: 1522 time(s)
Russian Federation


Неплохо, но как-то без своего лица. Очередные хранители олдскула, чье творчество забывается сразу же после того, как диск закончил играть...
Go to the top of the page
  Insert nick Quick quote
+Quote Post
post Jun 13 2018, 14:46:54
Post #10

Правь статус, ####!111
**************
Group: Металариец
Posts: 2,670
Releases: 0
From: Одесса
On Forums: 10 years 7 months
Thanks: 1060 time(s)
Ukraine


lacks something with this release...
Go to the top of the page
  Insert nick Quick quote
+Quote Post

Reply to this topicStart new topic
1 User(s) are reading this topic (1 Guests and 0 Anonymous Users)
0 Members:

 



- Lo-Fi Version Support form
Copyrights and abuse reports form
Time is now: 20th October 2018 - 08:29:24