Welcome Guest ( Log In | Register )

> Releases Upload / Добавление релизов

Добавить релиз тут / Click here to add release
Рекомендованные обменники / Recommended file shares

> Nocturnal Graves - Titan (2018), Black/Thrash Metal
post May 17 2018, 12:04:58
Post #1

Serial Uploader
Group Icon
Group: V.I.P
Posts: 32,509
Releases: 30792
From: Lithuania
On Forums: 9 years 11 months
Thanks: 353691 time(s)
Lithuania


(IMG:https://metalarea.org/images/audiocovers/2018_May/acov_tid306035_thumb.jpg)

*Artist: Nocturnal Graves
*Album: Titan
*Year: 2018
*Genre: Black/Thrash Metal
*Country: Australia (IMG:https://metalarea.org/forum/style_images/flags/Australia.png)
*Format: mp3@CBR320kbps
*Size: 91MB

Tracklist:
01. Resistance 06:44
02. Roar Of The Wild 03:41
03. Ecdysis, Shedding Weak Flesh 06:13
04. Souls Tribulation 03:42
05. And Hell Followed Them 04:15
06. Bow Before None 06:07
07. Silence The Martyrs 03:34
08. Titan 05:27
******************************
Total playing time: 39:43

(IMG:https://metalarea.org/images/myspace.png)


(IMG:https://metalarea.org/images/youtube.png)

Technical info
(IMG:https://metalarea.org/images/spectrogram/2018_May/e0ca9e17ab49bbdce84fdbfb261c41f7.png)
Input File: 02. Roar of the Wild.mp3
Channels : 2
Sample Rate : 44100
Precision : 16-bit
Duration : 00:00:00.22 = 9746 samples = 16.5748 CDDA sectors
File Size : 8.85M
Bit Rate : 320M
Sample Encoding: MPEG audio (layer I, II or III)
Comments :
Title=Roar of the Wild
Artist=Nocturnal Graves
Album=Titan
Tracknumber=2/8
Year=2018
Genre=Rock
Discnumber=1/1



Register


Вернуться к началу страницы
  Insert nick Quick quote
+Цитировать сообщение
 
Создать новую тему
Replies (1 - 8)
post May 17 2018, 14:40:35
Post #2

MDM-Thrash Metal
**************
Group: Металариец
Posts: 6,684
Releases: 410
From: Одесса
On Forums: 10 years 9 months
Thanks: 12738 time(s)
Ukraine


Register


Вернуться к началу страницы
  Insert nick Quick quote
+Цитировать сообщение
post May 17 2018, 19:18:44
Post #3

Маньяк
**********
Group: Металариец
Posts: 1,164
Releases: 0
On Forums: 10 years 3 months
Thanks: 411 time(s)
Russian Federation


Этот альбом не исключение из хорошего австралийского black thrash metal.
Вернуться к началу страницы
  Insert nick Quick quote
+Цитировать сообщение
post May 17 2018, 19:43:10
Post #4

Мегаманьяк
***********
Group: Металариец
Posts: 1,880
Releases: 0
From: Odessa
On Forums: 10 years 2 months
Thanks: 683 time(s)
Ukraine


More Death than Thrash, even according to the band themselves.


Thanks:
(1) Diflock,
Вернуться к началу страницы
  Insert nick Quick quote
+Цитировать сообщение
post May 18 2018, 05:06:47
Post #5

Все люди - черви.
**********
Group: Металариец
Posts: 1,018
Releases: 118
From: Пхёнъян, Северная Корея
On Forums: 5 years 4 months
Thanks: 3666 time(s)
North Korea


Что со спектрами? (IMG:style_emoticons/default/1488.gif)


Thanks:
(1) Visitor,
Вернуться к началу страницы
  Insert nick Quick quote
+Цитировать сообщение
post May 18 2018, 10:22:29
Post #6

_ - = # Thrashogolic # = - _ ... а давайте поржём все вместе
**************
Group: Металариец
Posts: 20,778
Releases: 4444
From: 404
On Forums: 7 years 11 months
Thanks: 26973 time(s)
Ukraine


ЦИТАТА(Oath19 @ May 18 2018, 07:06:47) *
Что со спектрами? (IMG:style_emoticons/default/1488.gif)
У некроскама отпуск,
А в отпуске - дайвинг (это вообще-то в инсту предназначалось, но попало в спектры ) (IMG:style_emoticons/default/1488.gif)
Вернуться к началу страницы
  Insert nick Quick quote
+Цитировать сообщение
post May 20 2018, 12:15:53
Post #7

for me your flesh
******
Group: Металариец
Posts: 544
Releases: 0
On Forums: 9 months 2 weeks
Thanks: 309 time(s)
Unknown


Весьма неплохо наваливают, скоростные проходы сменяются замедлениями, всё это приправлено ненавязчивыми соло. Вроде всё слишком банально, но слушается с удовольствием.
Вернуться к началу страницы
  Insert nick Quick quote
+Цитировать сообщение
post May 21 2018, 18:15:42
Post #8

Два Литра
**
Group: Завсегдатай
Posts: 173
Releases: 0
On Forums: 6 months 4 weeks
Thanks: 63 time(s)
United States


Музыка без особых изысков, но драйв и угар который она несет ни с чем не сравним. Мешанина из Thrash/Death/Black Metal не дала заскучать на протяжении почти всех не полных 40 минут
Вернуться к началу страницы
  Insert nick Quick quote
+Цитировать сообщение
post May 21 2018, 19:18:38
Post #9

Full-of-Hate
***********
Group: Металариец
Posts: 1,995
Releases: 0
On Forums: 8 years 10 months
Thanks: 1268 time(s)
Russian Federation


Неплохо, но как-то без своего лица. Очередные хранители олдскула, чье творчество забывается сразу же после того, как диск закончил играть...
Вернуться к началу страницы
  Insert nick Quick quote
+Цитировать сообщение

ОтветитьСоздать новую тему
2 User(s) are reading this topic (2 Guests and 0 Anonymous Users)
0 Members:

 



- Lo-Fi Version Support form
Copyrights and abuse reports form
Time is now: 25th May 2018 - 04:27:39