Welcome Guest ( Log In | Register )

> Wilt - Ruin (2018), Atmospheric Black Metal (D7)
post May 17 2018, 12:25:43
Post #1

Serial Uploader
Group Icon
Group: V.I.P
Posts: 32,953
Releases: 31246
From: Lithuania
On Forums: 10 years 2 months
Thanks: 357693 time(s)
Lithuania


(IMG:https://metalarea.org/images/audiocovers/2018_May/acov_tid306036_thumb.jpg)

*Artist: Wilt
*Album: Ruin
*Year: 2018
*Genre: Atmospheric Black Metal
*Country: Canada (IMG:https://metalarea.org/forum/style_images/flags/Canada.png)
*Format: mp3@CBR320kbps
*Size: 102MB

Tracklist:
01. Into The Unknown 07:50
02. We Read The World Wrong 08:11
03. Strings Of A Lingering Heart 06:50
04. A Summons Has Come 10:12
05. Veil Of Gold 07:51
06. Requiem 03:21
******************************
Total playing time: 44:15




Technical info
(IMG:https://metalarea.org/images/spectrogram/2018_May/6d17ef1dc6399a0a220fcaf33e26c58f.png)
Input File: 02. We Read the World Wrong.mp3
Channels : 2
Sample Rate : 44100
Precision : 16-bit
Duration : 00:08:11.10 = 21657290 samples = 36832.1 CDDA sectors
File Size : 19.9M
Bit Rate : 323k
Sample Encoding: MPEG audio (layer I, II or III)
Comments :
Title=We Read the World Wrong
Artist=Wilt
Album=Ruin
Tracknumber=2/6
Year=2018
Genre=Alternative
Discnumber=1/1



Register


Go to the top of the page
  Insert nick Quick quote
+Quote Post
 
Start new topic
Replies (1 - 2)
post May 17 2018, 14:34:27
Post #2

MDM-Thrash Metal
**************
Group: Металариец
Posts: 6,966
Releases: 412
From: Одесса
On Forums: 11 years 1 week
Thanks: 13267 time(s)
Ukraine


Register


Go to the top of the page
  Insert nick Quick quote
+Quote Post
post May 18 2018, 08:10:23
Post #3

Маньяк
**********
Group: Металариец
Posts: 1,199
Releases: 0
From: Dnipro
On Forums: 10 years 1 month
Thanks: 328 time(s)
Ukraine


Не плохо, достойно, но такого уже спето миллион тонн.
Go to the top of the page
  Insert nick Quick quote
+Quote Post

Reply to this topicStart new topic
1 User(s) are reading this topic (1 Guests and 0 Anonymous Users)
0 Members:

 



- Lo-Fi Version Support form
Copyrights and abuse reports form
Time is now: 21st August 2018 - 16:34:35