Welcome Guest ( Log In | Register )

> Releases Upload / Добавление релизов

Добавить релиз тут / Click here to add release
Рекомендованные обменники / Recommended file shares

> Quasarborn - The Odyssey To Room 101 (2018), Technical Thrash Metal
post May 17 2018, 12:32:43
Post #1

Serial Uploader
Group Icon
Group: V.I.P
Posts: 32,452
Releases: 30751
From: Lithuania
On Forums: 9 years 11 months
Thanks: 353316 time(s)
Lithuania


(IMG:https://metalarea.org/images/audiocovers/2018_May/acov_tid306037_thumb.jpg)

*Artist: Quasarborn
*Album: The Odyssey To Room 101
*Year: 2018
*Genre: Technical Thrash Metal
*Country: Serbia (IMG:https://metalarea.org/forum/style_images/flags/Serbia.png)
*Format: mp3@CBR320kbps
*Size: 121MB

Tracklist:
01. Crash Course In Life
02. Toys In The Attic (Introduction)
03. The Underdog League
04. A (Suicide) Letter To Humanity
05. Blood Honey
06. No Mustapha Mond
07. Château D'if
08. Transcendence
09. Escape Into Reality
10. Danse Macabre
11. The Odyssey To Room 101
******************************
Total playing time: 49:50


(IMG:https://metalarea.org/images/youtube.png)

Technical info
(IMG:https://metalarea.org/images/spectrogram/2018_May/f3170f1a7e41565af4d8e85893f8374c.png)
Input File: 02. Toys in the Attic (Introduction).mp3
Channels : 2
Sample Rate : 44100
Precision : 16-bit
Duration : 00:00:57.11 = 2518507 samples = 4283.18 CDDA sectors
File Size : 2.91M
Bit Rate : 408k
Sample Encoding: MPEG audio (layer I, II or III)
Comments :
Title=Toys in the Attic (Introduction)
Artist=Quasarborn
Album=The Odyssey to Room 101
Tracknumber=2/11
Year=2018
Genre=Alternative
Discnumber=1/1



Register


Вернуться к началу страницы
  Insert nick Quick quote
+Цитировать сообщение
 
Создать новую тему
Replies (1 - 5)
post May 17 2018, 14:38:01
Post #2

Маньяк
**********
Group: Металариец
Posts: 1,163
Releases: 0
On Forums: 10 years 3 months
Thanks: 411 time(s)
Russian Federation


Интересная манера пения у Луки - это ещё заметил, когда он голосил на последнем альбоме SPACE EATER. А так всё тот же хороший thrash metal, ведь музыканты почти теже.


Thanks:
Вернуться к началу страницы
  Insert nick Quick quote
+Цитировать сообщение
post May 17 2018, 20:23:07
Post #3

Сталин придёт за тобой...
***********
Group: Металариец
Posts: 1,601
Releases: 0
From: Беларусь, Минск
On Forums: 10 years 10 months
Thanks: 734 time(s)
Belarus


Отличный альбом.


Thanks:
Вернуться к началу страницы
  Insert nick Quick quote
+Цитировать сообщение
post May 18 2018, 14:02:30
Post #4

Три Литра
***
Group: Завсегдатай
Posts: 292
Releases: 61
From: saratov
On Forums: 8 years 9 months
Thanks: 1472 time(s)
Russian Federation


По моему лучшее,что я услышал в трэше в этом году..Отличный альбом.
Вернуться к началу страницы
  Insert nick Quick quote
+Цитировать сообщение
post May 18 2018, 21:03:13
Post #5

Правь статус, ####!111
**************
Group: Металариец
Posts: 12,984
Releases: 9229
From: Г.Харьков
On Forums: 6 years 1 week
Thanks: 150111 time(s)
Unknown


Register


Thanks:
(1) Diflock,
Вернуться к началу страницы
  Insert nick Quick quote
+Цитировать сообщение
post May 19 2018, 09:55:25
Post #6

Правь статус, ####!111
**************
Group: Металариец
Posts: 5,113
Releases: 0
From: Primorye.ru
On Forums: 7 years 1 month
Thanks: 966 time(s)
Russian Federation


Не сказал бы, что лучшее в Thrashе этого года, но всё таки очень понравилось (IMG:style_emoticons/default/metaler.gif)
Вернуться к началу страницы
  Insert nick Quick quote
+Цитировать сообщение

ОтветитьСоздать новую тему
1 User(s) are reading this topic (1 Guests and 0 Anonymous Users)
0 Members:

 



- Lo-Fi Version Support form
Copyrights and abuse reports form
Time is now: 23rd May 2018 - 02:42:54