Welcome Guest ( Log In | Register )

> Releases Upload / Добавление релизов

Добавить релиз тут / Click here to add release
Рекомендованные обменники / Recommended file shares

 
ОтветитьСоздать новую тему
> Northern Malice & Somniac - Northern Malice/Somniac [split] (2018), Raw Black Metal | Raw Black Metal
post May 17 2018, 12:35:26
Post #1

Правь статус, ####!616
**************
Group: Металариец
Posts: 4,339
Releases: 2950
From: 55°35’N 38°08’E
On Forums: 9 years 10 months
Thanks: 54996 time(s)
Unknown


(IMG:http://metalarea.org/images/audiocovers/2018_May/acov_tid306038_thumb.jpg)

*Artist: Northern Malice & Somniac
*Album: Northern Malice/Somniac [split]
*Year: 2018
*Genre: Raw Black Metal | Raw Black Metal
*Country: United States (IMG:http://metalarea.org/forum/style_images/flags/United%20States.png) | United States (IMG:http://metalarea.org/forum/style_images/flags/United%20States.png)
*Format: mp3@CBR320kbps
*Size: 70MB

Tracklist:
Northern Malice:
1.Living To Die 05:16
2.Weight Of The World 04:15
3.Interlude 01:23
4.Night Of Full Moon 03:14
5.Tortured Souls 03:38
Somniac:
6.Trickling Blood 01:06
7.Evolution Of Sorrow 05:05
8.Darwin Wept 08:20
9.Reprise 00:33
******************************
Total playing time: 32:50



Extended info
Cassette, Northern Malice Productions NMP 001 (Limited to 50 hand-numbered copies.)


Technical info
(IMG:http://metalarea.org/images/spectrogram/2018_May/c70c66685728a9e1072911f79b35e46c.png)
Input File: 01 Northern Malice - Living To Die.mp3
Channels : 1
Sample Rate : 44100
Precision : 16-bit
Duration : 00:05:16.74 = 13968278 samples = 23755.6 CDDA sectors
File Size : 12.7M
Bit Rate : 322k
Sample Encoding: MPEG audio (layer I, II or III)
Comments :
Title=Living To Die
Artist=Northern Malice
Album=Northern Malice/ Somniac Split
Tracknumber=1
Year=2018
Genre=Black Metal



Register


Вернуться к началу страницы
  Insert nick Quick quote
+Цитировать сообщение

ОтветитьСоздать новую тему
1 User(s) are reading this topic (1 Guests and 0 Anonymous Users)
0 Members:

 



- Lo-Fi Version Support form
Copyrights and abuse reports form
Time is now: 25th May 2018 - 04:22:48