Welcome Guest ( Log In | Register )

> Releases Upload / Добавление релизов

Добавить релиз тут / Click here to add release
Рекомендованные обменники / Recommended file shares

> Ephyra - The Day Of Return (2018), Folk Metal
post May 17 2018, 12:39:46
Post #1

Serial Uploader
Group Icon
Group: V.I.P
Posts: 32,509
Releases: 30792
From: Lithuania
On Forums: 9 years 11 months
Thanks: 353690 time(s)
Lithuania


(IMG:https://metalarea.org/images/audiocovers/2018_May/acov_tid306039_thumb.jpg)

*Artist: Ephyra
*Album: The Day Of Return
*Year: 2018
*Genre: Folk Metal
*Country: Italy (IMG:https://metalarea.org/forum/style_images/flags/Italy.png)
*Format: mp3@CBR320kbps
*Size: 105MB

Tracklist:
01. The Day Of Return 04:19
02. Your Sin 04:40
03. Run Through The Restless Fog 04:19
04. Wayfarer 04:08
05. Sublime Visions 04:01
06. Being Human 04:11
07. The Spirit Of The Earth 03:53
08. Dance Between The Rocks 03:53
09. Infinite Souls 03:51
10. True Blood 05:18
******************************
Total playing time: 42:33



(IMG:https://metalarea.org/images/youtube.png)

Technical info
(IMG:https://metalarea.org/images/spectrogram/2018_May/d2b69737d4b2b8a616b1462f1ab9e0a2.png)
Input File: 02. Your Sin.mp3
Channels : 2
Sample Rate : 44100
Precision : 16-bit
Duration : 00:04:40.97 = 12390909 samples = 21073 CDDA sectors
File Size : 11.8M
Bit Rate : 337k
Sample Encoding: MPEG audio (layer I, II or III)
Comments :
Title=Your Sin
Artist=Ephyra
Album=The Day of Return
Tracknumber=2/10
Year=2018
Genre=Metal
Discnumber=1/1



Register


Вернуться к началу страницы
  Insert nick Quick quote
+Цитировать сообщение
 
Создать новую тему
Replies (1 - 1)
post May 18 2018, 08:09:35
Post #2

Девять Литров
*********
Group: Металариец
Posts: 990
Releases: 0
From: Dnipro
On Forums: 9 years 10 months
Thanks: 253 time(s)
Ukraine


Бабское блеенье все портит.
Вернуться к началу страницы
  Insert nick Quick quote
+Цитировать сообщение

ОтветитьСоздать новую тему
1 User(s) are reading this topic (1 Guests and 0 Anonymous Users)
0 Members:

 



- Lo-Fi Version Support form
Copyrights and abuse reports form
Time is now: 25th May 2018 - 04:23:20