Welcome Guest ( Log In | Register )

> Fragments Of Unbecoming - Perdition Portal (2018), Melodic Death Metal
post May 17 2018, 12:46:19
Post #1

Serial Uploader
Group Icon
Group: V.I.P
Posts: 33,063
Releases: 31348
From: Lithuania
On Forums: 10 years 3 months
Thanks: 358606 time(s)
Lithuania


(IMG:https://metalarea.org/images/audiocovers/2018_May/acov_tid306040_thumb.jpg)

*Artist: Fragments Of Unbecoming
*Album: Perdition Portal
*Year: 2018
*Genre: Melodic Death Metal
*Country: Germany (IMG:https://metalarea.org/forum/style_images/flags/Germany.png)
*Format: mp3@CBR320kbps
*Size: 103MB

Tracklist:
01. Dismal
02. Towards The Leaden Sky
03. Golgotha
04. Shadowfathers
05. Perdition Portal
06. Treacherous Grounds
07. Abyssphere
08. All Light Swallowed
09. Morbid Divinity
10. Calamity Choir
******************************
Total playing time: 44:19

(IMG:https://metalarea.org/images/myspace.png)


(IMG:https://metalarea.org/images/youtube.png)

Technical info
(IMG:https://metalarea.org/images/spectrogram/2018_May/c11d4335280d6e2168cf79843d19b470.png)
Input File: 02. Towards the Leaden Sky.mp3
Channels : 2
Sample Rate : 44100
Precision : 16-bit
Duration : 00:04:50.59 = 12814887 samples = 21794 CDDA sectors
File Size : 11.8M
Bit Rate : 325k
Sample Encoding: MPEG audio (layer I, II or III)
Comments :
Title=Towards the Leaden Sky
Artist=Fragments Of Unbecoming
Album=Perdition Portal
Tracknumber=2/10
Year=2018
Genre=Metal
Discnumber=1/1



Register


Go to the top of the page
  Insert nick Quick quote
+Quote Post
 
Start new topic
Replies (1 - 8)
post May 17 2018, 14:31:57
Post #2

MDM-Thrash Metal
**************
Group: Металариец
Posts: 7,061
Releases: 412
From: Одесса
On Forums: 11 years 1 month
Thanks: 13448 time(s)
Ukraine



Register


Кстати, очень приличный сабж! Без кора, грува, клавиш, чистоголосья и прочей х (IMG:style_emoticons/default/25.gif) йни. Такой мелодез нынче большая редкость. Альбом заходит очень легко иприятно ложиться на слух! (IMG:style_emoticons/default/20.gif)


Go to the top of the page
  Insert nick Quick quote
+Quote Post
post May 18 2018, 08:06:26
Post #3

Маньяк
**********
Group: Металариец
Posts: 1,318
Releases: 0
From: Dnipro
On Forums: 10 years 2 months
Thanks: 364 time(s)
Ukraine


Предыдущие тоже вполне нормальные были, даже где то один на фирме валяется в шкафу.
Go to the top of the page
  Insert nick Quick quote
+Quote Post
post May 18 2018, 09:17:20
Post #4

Волк без яблока
**************
Group: Металариец
Posts: 13,062
Releases: 103
From: Санкт-Петербург
On Forums: 11 years 11 months
Thanks: 14666 time(s)
Russian Federation


Неплохой приблэкованный мелодэт, любителям стиля вполне может зайти.
Go to the top of the page
  Insert nick Quick quote
+Quote Post
post May 25 2018, 12:34:36
Post #5

Ъ
**************
Group: Металариец
Posts: 9,169
Releases: 9
On Forums: 9 years 8 months
Thanks: 1749 time(s)
Sweden


Хватило на три трека, однообразно и невыразительно.
Go to the top of the page
  Insert nick Quick quote
+Quote Post
post May 25 2018, 21:45:21
Post #6

Ищущий
****
Group: Металариец
Posts: 389
Releases: 0
From: Украина
On Forums: 10 years 2 months
Thanks: 13 time(s)
Ukraine


С удовольствием забираю
Go to the top of the page
  Insert nick Quick quote
+Quote Post
post May 26 2018, 04:48:07
Post #7

MDM-Thrash Metal
**************
Group: Металариец
Posts: 7,061
Releases: 412
From: Одесса
On Forums: 11 years 1 month
Thanks: 13448 time(s)
Ukraine


ЦИТАТА(DenisKov @ May 25 2018, 14:34:36) *
Хватило на три трека, однообразно и невыразительно.

Ну, это ты зря! Альбом очень даже годный. Не шедевр, но крепкая и добротная работа.
Go to the top of the page
  Insert nick Quick quote
+Quote Post
post May 26 2018, 11:24:02
Post #8

Аполітичний
**************
Group: Металариец
Posts: 5,189
Releases: 143
From: Тимчасово окупована територія - Юзівка
On Forums: 10 years 1 month
Thanks: 5399 time(s)
Ukraine


ЦИТАТА(Andrew @ May 26 2018, 06:48:07) *
Ну, это ты зря! Альбом очень даже годный. Не шедевр, но крепкая и добротная работа.


Кому ты это говоришь? (IMG:style_emoticons/default/1488.gif)


Thanks:
Go to the top of the page
  Insert nick Quick quote
+Quote Post
post Sep 14 2018, 16:10:53
Post #9

добрый мизантроп
**********
Group: Металариец
Posts: 1,424
Releases: 0
From: Минск
On Forums: 7 years 10 months
Thanks: 424 time(s)
Madagascar


Хороший мдм с дэтовым вокалом.
Go to the top of the page
  Insert nick Quick quote
+Quote Post

Reply to this topicStart new topic
2 User(s) are reading this topic (2 Guests and 0 Anonymous Users)
0 Members:

 



- Lo-Fi Version Support form
Copyrights and abuse reports form
Time is now: 22nd September 2018 - 03:26:37