Welcome Guest ( Log In | Register )

> Releases Upload / Добавление релизов

Добавить релиз тут / Click here to add release
Рекомендованные обменники / Recommended file shares

> Fragments Of Unbecoming - Perdition Portal (2018), Melodic Death Metal
post May 17 2018, 12:46:19
Post #1

Serial Uploader
Group Icon
Group: V.I.P
Posts: 32,452
Releases: 30751
From: Lithuania
On Forums: 9 years 11 months
Thanks: 353316 time(s)
Lithuania


(IMG:https://metalarea.org/images/audiocovers/2018_May/acov_tid306040_thumb.jpg)

*Artist: Fragments Of Unbecoming
*Album: Perdition Portal
*Year: 2018
*Genre: Melodic Death Metal
*Country: Germany (IMG:https://metalarea.org/forum/style_images/flags/Germany.png)
*Format: mp3@CBR320kbps
*Size: 103MB

Tracklist:
01. Dismal
02. Towards The Leaden Sky
03. Golgotha
04. Shadowfathers
05. Perdition Portal
06. Treacherous Grounds
07. Abyssphere
08. All Light Swallowed
09. Morbid Divinity
10. Calamity Choir
******************************
Total playing time: 44:19

(IMG:https://metalarea.org/images/myspace.png)


(IMG:https://metalarea.org/images/youtube.png)

Technical info
(IMG:https://metalarea.org/images/spectrogram/2018_May/c11d4335280d6e2168cf79843d19b470.png)
Input File: 02. Towards the Leaden Sky.mp3
Channels : 2
Sample Rate : 44100
Precision : 16-bit
Duration : 00:04:50.59 = 12814887 samples = 21794 CDDA sectors
File Size : 11.8M
Bit Rate : 325k
Sample Encoding: MPEG audio (layer I, II or III)
Comments :
Title=Towards the Leaden Sky
Artist=Fragments Of Unbecoming
Album=Perdition Portal
Tracknumber=2/10
Year=2018
Genre=Metal
Discnumber=1/1



Register


Вернуться к началу страницы
  Insert nick Quick quote
+Цитировать сообщение
 
Создать новую тему
Replies (1 - 3)
post May 17 2018, 14:31:57
Post #2

MDM-Thrash Metal
**************
Group: Металариец
Posts: 6,669
Releases: 410
From: Одесса
On Forums: 10 years 9 months
Thanks: 12727 time(s)
Ukraine



Register


Кстати, очень приличный сабж! Без кора, грува, клавиш, чистоголосья и прочей х (IMG:style_emoticons/default/25.gif) йни. Такой мелодез нынче большая редкость. Альбом заходит очень легко иприятно ложиться на слух! (IMG:style_emoticons/default/20.gif)


Вернуться к началу страницы
  Insert nick Quick quote
+Цитировать сообщение
post May 18 2018, 08:06:26
Post #3

Девять Литров
*********
Group: Металариец
Posts: 989
Releases: 0
From: Dnipro
On Forums: 9 years 10 months
Thanks: 252 time(s)
Ukraine


Предыдущие тоже вполне нормальные были, даже где то один на фирме валяется в шкафу.
Вернуться к началу страницы
  Insert nick Quick quote
+Цитировать сообщение
post May 18 2018, 09:17:20
Post #4

Волк без яблока
**************
Group: Металариец
Posts: 12,933
Releases: 101
From: Санкт-Петербург
On Forums: 11 years 7 months
Thanks: 14455 time(s)
Russian Federation


Неплохой приблэкованный мелодэт, любителям стиля вполне может зайти.
Вернуться к началу страницы
  Insert nick Quick quote
+Цитировать сообщение

ОтветитьСоздать новую тему
2 User(s) are reading this topic (2 Guests and 0 Anonymous Users)
0 Members:

 



- Lo-Fi Version Support form
Copyrights and abuse reports form
Time is now: 23rd May 2018 - 02:43:23