Welcome Guest ( Log In | Register )

 
Reply to this topicStart new topic
> Mûspellzheimr - Demo II [demo] (2014), Black Metal
post May 17 2018, 12:47:37
Post #1

Маньяк
**********
Group: Металариец
Posts: 1,355
Releases: 1053
From: Prešov
On Forums: 4 years 4 months
Thanks: 24219 time(s)
Slovakia


(IMG:https://metalarea.org/images/audiocovers/2018_May/acov_tid306041_thumb.jpg)

*Artist: Mûspellzheimr
*Album: Demo II [demo]
*Year: 2014
*Genre: Black Metal
*Country: Denmark (IMG:https://metalarea.org/forum/style_images/flags/Denmark.png)
*Format: mp3@CBR320kbps
*Size: 70MB

Tracklist:
1. I 07:18
2. II 07:25
3. III 06:48
4. IV 08:43
******************************
Total playing time: 30:14



Technical info
(IMG:https://metalarea.org/images/spectrogram/2018_May/19414040886d5ed1e2bbbc0395688318.png)
Input File: 01. I.mp3
Channels : 2
Sample Rate : 44100
Precision : 16-bit
Duration : 00:07:18.25 = 19326737 samples = 32868.6 CDDA sectors
File Size : 17.6M
Bit Rate : 321k
Sample Encoding: MPEG audio (layer I, II or III)
Comments :
Title=I
Artist=MГєspellzheimr
Album=Demo II
Tracknumber=1
Year=2014
Genre=Black Metal



Register


Go to the top of the page
  Insert nick Quick quote
+Quote Post

Reply to this topicStart new topic
1 User(s) are reading this topic (1 Guests and 0 Anonymous Users)
0 Members:

 



- Lo-Fi Version Support form
Copyrights and abuse reports form
Time is now: 21st August 2018 - 16:34:39