Welcome Guest ( Log In | Register )

> Chordotomy - Subjugated Into Obedience (2018), Brutal Death Metal (D5)
post May 17 2018, 12:53:39
Post #1

Serial Uploader
Group Icon
Group: V.I.P
Posts: 32,953
Releases: 31246
From: Lithuania
On Forums: 10 years 2 months
Thanks: 357693 time(s)
Lithuania


(IMG:https://metalarea.org/images/audiocovers/2018_May/acov_tid306042_thumb.jpg)

*Artist: Chordotomy
*Album: Subjugated Into Obedience
*Year: 2018
*Genre: Brutal Death Metal
*Country: Germany (IMG:https://metalarea.org/forum/style_images/flags/Germany.png)
*Format: mp3@CBR320kbps
*Size: 84MB

Tracklist:
01. Intro
02. Incoherence Of Perception
03. Generic Aftermath
04. Intoxicated
05. Nerve
06. Unpredictable
07. Synapticide
08. John Doe
09. Bodyfarm
10. Mentally Sliced, Internally Diced
11. Outro
******************************
Total playing time: 35:42

(IMG:https://metalarea.org/images/myspace.png)



(IMG:https://metalarea.org/images/youtube.png)

Technical info
(IMG:https://metalarea.org/images/spectrogram/2018_May/3ea9edcca4d0f5979c3c5a9cf46d5aa2.png)
Input File: 02. Incoherence of Perception.mp3
Channels : 2
Sample Rate : 44100
Precision : 16-bit
Duration : 00:04:14.25 = 11212293 samples = 19068.5 CDDA sectors
File Size : 10.4M
Bit Rate : 329k
Sample Encoding: MPEG audio (layer I, II or III)
Comments :
Title=Incoherence of Perception
Artist=Chordotomy
Album=Subjugated into Obedience
Tracknumber=2/11
Year=2018
Genre=Metal
Discnumber=1/1



Register


Go to the top of the page
  Insert nick Quick quote
+Quote Post
 
Start new topic
Replies (1 - 2)
post May 17 2018, 14:32:58
Post #2

MDM-Thrash Metal
**************
Group: Металариец
Posts: 6,966
Releases: 412
From: Одесса
On Forums: 11 years 1 week
Thanks: 13267 time(s)
Ukraine


Register


Thanks:
(3) Guns, jollo, Korpse,
Go to the top of the page
  Insert nick Quick quote
+Quote Post
post May 17 2018, 20:19:44
Post #3

Самый Тихий Час
**************
Group: Металариец
Posts: 5,553
Releases: 0
On Forums: 8 years 9 months
Thanks: 2402 time(s)
Unknown


че там, пацаны паспорт уже получили? (IMG:style_emoticons/default/sirt.gif)
Go to the top of the page
  Insert nick Quick quote
+Quote Post

Reply to this topicStart new topic
1 User(s) are reading this topic (1 Guests and 0 Anonymous Users)
0 Members:

 



- Lo-Fi Version Support form
Copyrights and abuse reports form
Time is now: 21st August 2018 - 16:34:44