Welcome Guest ( Log In | Register )

> Releases Upload / Добавление релизов

Добавить релиз тут / Click here to add release
Рекомендованные обменники / Recommended file shares

> Display Of Decay - Art In Mutilation (2018), Brutal Death Metal (D4)
post May 17 2018, 13:01:51
Post #1

Serial Uploader
Group Icon
Group: V.I.P
Posts: 32,509
Releases: 30792
From: Lithuania
On Forums: 9 years 11 months
Thanks: 353690 time(s)
Lithuania


(IMG:https://metalarea.org/images/audiocovers/2018_May/acov_tid306043_thumb.jpg)

*Artist: Display Of Decay
*Album: Art In Mutilation
*Year: 2018
*Genre: Brutal Death Metal
*Country: Canada (IMG:https://metalarea.org/forum/style_images/flags/Canada.png)
*Format: mp3@CBR320kbps
*Size: 81MB

Tracklist:
01. Unable To Identify
02. Forced Frontal Lobotomy
03. Living Monolith
04. Art In Mutilation
05. Condemned To Ash
06. Mortuary Of Decay
07. Decimate
08. Human Harvest
******************************
Total playing time: 33:26

(IMG:https://metalarea.org/images/myspace.png)



(IMG:https://metalarea.org/images/youtube.png)

Technical info
(IMG:https://metalarea.org/images/spectrogram/2018_May/be293f019f792da2c402c7a0e7ce848d.png)
Input File: 02. Forced Frontal Lobotomy.mp3
Channels : 2
Sample Rate : 44100
Precision : 16-bit
Duration : 00:03:23.72 = 8984096 samples = 15279.1 CDDA sectors
File Size : 8.71M
Bit Rate : 342k
Sample Encoding: MPEG audio (layer I, II or III)
Comments :
Title=Forced Frontal Lobotomy
Artist=Display of Decay
Album=Art in Mutilation
Tracknumber=2/8
Year=2018
Genre=Metal
Discnumber=1/1



Register


Вернуться к началу страницы
  Insert nick Quick quote
+Цитировать сообщение
 
Создать новую тему
Replies (1 - 1)
post May 17 2018, 14:30:41
Post #2

MDM-Thrash Metal
**************
Group: Металариец
Posts: 6,684
Releases: 410
From: Одесса
On Forums: 10 years 9 months
Thanks: 12738 time(s)
Ukraine


Register


Вернуться к началу страницы
  Insert nick Quick quote
+Цитировать сообщение

ОтветитьСоздать новую тему
1 User(s) are reading this topic (1 Guests and 0 Anonymous Users)
0 Members:

 



- Lo-Fi Version Support form
Copyrights and abuse reports form
Time is now: 25th May 2018 - 04:26:07