Welcome Guest ( Log In | Register )

> Releases Upload / Добавление релизов

Добавить релиз тут / Click here to add release
Рекомендованные обменники / Recommended file shares

 
ОтветитьСоздать новую тему
> Thought Eater - Bones In The Fire (2018), Sludge/Doom Metal
post May 17 2018, 13:09:01
Post #1

Serial Uploader
Group Icon
Group: V.I.P
Posts: 32,509
Releases: 30792
From: Lithuania
On Forums: 9 years 11 months
Thanks: 353690 time(s)
Lithuania


(IMG:https://metalarea.org/images/audiocovers/2018_May/acov_tid306044_thumb.jpg)

*Artist: Thought Eater
*Album: Bones In The Fire
*Year: 2018
*Genre: Sludge/Doom Metal
*Country: United States (IMG:https://metalarea.org/forum/style_images/flags/United%20States.png)
*Format: mp3@CBR320kbps
*Size: 97MB

Tracklist:
01. Bones In The Fire, Pt. 1
02. Pantomimic Dances
03. Speak Through Dreams
04. Covenant
05. Bones In The Fire, Pt. 2
06. Umwelt
******************************
Total playing time: 40:30




Technical info
(IMG:https://metalarea.org/images/spectrogram/2018_May/fac69267a3bf826fa3e1303fb30ba40e.png)
Input File: 02. Pantomimic Dances.mp3
Channels : 2
Sample Rate : 44100
Precision : 16-bit
Duration : 00:06:35.69 = 17449797 samples = 29676.5 CDDA sectors
File Size : 16.6M
Bit Rate : 335k
Sample Encoding: MPEG audio (layer I, II or III)
Comments :
Title=Pantomimic Dances
Artist=Thought Eater
Album=Bones in the Fire
Tracknumber=2/6
Year=2018
Genre=Alternative
Discnumber=1/1



Register


Вернуться к началу страницы
  Insert nick Quick quote
+Цитировать сообщение

ОтветитьСоздать новую тему
1 User(s) are reading this topic (1 Guests and 0 Anonymous Users)
0 Members:

 



- Lo-Fi Version Support form
Copyrights and abuse reports form
Time is now: 25th May 2018 - 04:25:43