Welcome Guest ( Log In | Register )

> Releases Upload / Добавление релизов

Добавить релиз тут / Click here to add release
Рекомендованные обменники / Recommended file shares

 
ОтветитьСоздать новую тему
> Fallen Legion - Downfall [ep] (2018), Melodic Thrash/Death Metal
post May 17 2018, 13:16:01
Post #1

Serial Uploader
Group Icon
Group: V.I.P
Posts: 32,509
Releases: 30792
From: Lithuania
On Forums: 9 years 11 months
Thanks: 353690 time(s)
Lithuania


(IMG:https://metalarea.org/images/audiocovers/2018_May/acov_tid306045_thumb.jpg)

*Artist: Fallen Legion
*Album: Downfall [ep]
*Year: 2018
*Genre: Melodic Thrash/Death Metal
*Country: Canada (IMG:https://metalarea.org/forum/style_images/flags/Canada.png)
*Format: mp3@CBR320kbps
*Size: 58MB

Tracklist:
01. Cipher
02. Escapegoat
03. Injection
04. Way Out
05. Monster Reborn
06. New Skin
******************************
Total playing time: 24:49

(IMG:https://metalarea.org/images/myspace.png)



Technical info
(IMG:https://metalarea.org/images/spectrogram/2018_May/32cf376c82a848b0280b7c1ac4af6112.png)
Input File: 02. Escapegoat.mp3
Channels : 2
Sample Rate : 44100
Precision : 16-bit
Duration : 00:04:27.57 = 11799881 samples = 20067.8 CDDA sectors
File Size : 11.0M
Bit Rate : 328k
Sample Encoding: MPEG audio (layer I, II or III)
Comments :
Title=Escapegoat
Artist=Fallen Legion
Album=Downfall
Tracknumber=2/6
Year=2018
Genre=Alternative
Discnumber=1/1



Register


Вернуться к началу страницы
  Insert nick Quick quote
+Цитировать сообщение

ОтветитьСоздать новую тему
1 User(s) are reading this topic (1 Guests and 0 Anonymous Users)
0 Members:

 



- Lo-Fi Version Support form
Copyrights and abuse reports form
Time is now: 25th May 2018 - 04:23:13