Welcome Guest ( Log In | Register )

> Mystruin - För Intet [demo] (2013), Black Metal
post May 17 2018, 13:22:03
Post #1

Group: Дух
Posts: 2
Releases: 1
On Forums: 3 years 10 months
Thanks: 12 time(s)
Finland


(IMG:http://metalarea.org/images/audiocovers/2018_May/acov_tid306046_thumb.jpg)

*Artist: Mystruin
*Album: För Intet [demo]
*Year: 2013
*Genre: Black Metal
*Country: Sweden (IMG:http://metalarea.org/forum/style_images/flags/Sweden.png)
*Format: mp3@CBR320kbps
*Size: 8MB

Tracklist:
1. Människosläktets förfall 06:27
2. Dysterhetens gastar 03:10
3. Left to Be Devoured by the Night 10:09
******************************
Total playing time: 19:46

Extended info
Self made tape rip


Technical info
(IMG:http://metalarea.org/images/spectrogram/2018_May/5fe29a705cc8e90b3ed2492c82103d32.png)
Input File: 02 - Dysterhetens Gastar.mp3
Channels : 2
Sample Rate : 44100
Precision : 16-bit
Duration : 00:03:10.08 = 8382704 samples = 14256.3 CDDA sectors
File Size : 7.60M
Bit Rate : 320k
Sample Encoding: MPEG audio (layer I, II or III)
Comments :
Title=Dysterhetens Gastar
Artist=Mystruin
Album=För Intet
Tracknumber=02
Year=2013
Genre=Black Metal



Register


Go to the top of the page
  Insert nick Quick quote
+Quote Post
 
Start new topic
Replies (1 - 1)
post May 17 2018, 17:39:39
Post #2

Маньяк
**********
Group: Металариец
Posts: 1,485
Releases: 23
From: Spain
On Forums: 11 years 1 month
Thanks: 1142 time(s)
Spain


QUOTE
Go to the top of the page
  Insert nick Quick quote
+Quote Post

Reply to this topicStart new topic
1 User(s) are reading this topic (1 Guests and 0 Anonymous Users)
0 Members:

 



- Lo-Fi Version Support form
Copyrights and abuse reports form
Time is now: 18th October 2018 - 13:02:34