Welcome Guest ( Log In | Register )

> Hereditary - Sin (2018), Melodic Death Metal
post May 18 2018, 02:50:47
Post #1

Serial Uploader
Group Icon
Group: V.I.P
Posts: 33,058
Releases: 31341
From: Lithuania
On Forums: 10 years 3 months
Thanks: 358564 time(s)
Lithuania


(IMG:https://metalarea.org/images/audiocovers/2018_May/acov_uid41155_c75cf99f963e9191a6ff97b7ba2d9a68_thumb.jpg)

*Artist: Hereditary
*Album: Sin
*Year: 2018
*Genre: Melodic Death Metal
*Country: Germany (IMG:http://metalarea.org/forum/style_images/flags/Germany.png)
*Format: mp3@CBR320kbps
*Size: 96MB

Tracklist:
01. Prophecy of Fear
02. Resurrected Persecutor
03. Desolate Cremation
04. Buried in Exploited Flesh
05. Impurity
06. Evilution
07. Pelagos
08. The Sound of Pestilence
09. Angel of Decay
10. Vengeance
11. Flesh & Bones
12. Sacharja
13. Inception of the End
******************************
Total playing time: 42:00




Technical info
(IMG:http://metalarea.org/images/spectrogram/2018_May/0a0d199ba412cc4be2ff6d820e151078.png)
Input File: 02. Resurrected Persecutor.mp3
Channels : 2
Sample Rate : 44100
Precision : 16-bit
Duration : 00:04:22.61 = 11581101 samples = 19695.8 CDDA sectors
File Size : 10.5M
Bit Rate : 320k
Sample Encoding: MPEG audio (layer I, II or III)
Comments :
Title=Resurrected Persecutor
Artist=Hereditary
Album=Sin
Tracknumber=2/13
Year=2018



Register


Go to the top of the page
  Insert nick Quick quote
+Quote Post
 
Start new topic
Replies (1 - 3)
post May 19 2018, 07:30:25
Post #2

Ъ
**************
Group: Металариец
Posts: 9,151
Releases: 9
On Forums: 9 years 8 months
Thanks: 1747 time(s)
Sweden


Третьесорт.
Go to the top of the page
  Insert nick Quick quote
+Quote Post
post May 19 2018, 14:55:11
Post #3

Маньяк
**********
Group: Металариец
Posts: 1,303
Releases: 0
From: Dnipro
On Forums: 10 years 2 months
Thanks: 359 time(s)
Ukraine


ЦИТАТА(DenisKov @ May 19 2018, 09:30:25) *
Третьесорт.
Тут свою руку великий Дэн Свано приложил.Альбом не так уж и плох.Recorded and mixed by Florian Heinen
Mastered by Dan Swanö at Unisound
Go to the top of the page
  Insert nick Quick quote
+Quote Post
post May 19 2018, 16:41:04
Post #4

MDM-Thrash Metal
**************
Group: Металариец
Posts: 7,061
Releases: 412
From: Одесса
On Forums: 11 years 1 month
Thanks: 13440 time(s)
Ukraine


Не совсем отстой, но все же ближе к третьсорту...


Thanks:
(1) AHBAnep,
Go to the top of the page
  Insert nick Quick quote
+Quote Post

Reply to this topicStart new topic
2 User(s) are reading this topic (2 Guests and 0 Anonymous Users)
0 Members:

 



- Lo-Fi Version Support form
Copyrights and abuse reports form
Time is now: 20th September 2018 - 01:37:55