Welcome Guest ( Log In | Register )

> Wolfsschrei - Rise Dead Ember (2018), Black Metal
post May 18 2018, 16:37:28
Post #1

Правь статус, ####!111
**************
Group: Металариец
Posts: 3,298
Releases: 643
From: Brazil
On Forums: 6 years 7 months
Thanks: 25550 time(s)
Brazil


(IMG:https://metalarea.org/images/audiocovers/2018_May/acov_tid306118_thumb.jpg)

*Artist: Wolfsschrei
*Album: Rise Dead Ember
*Year: 2018
*Genre: Black Metal
*Country: Germany (IMG:https://metalarea.org/forum/style_images/flags/Germany.png)
*Format: mp3@CBR320kbps
*Size: 71MB

Tracklist:
1. With Fangs and Claws 05:17
2. Deadly Silence 06:00
3. Rise Dead Ember 05:42
4. Splattered, Soaked 'n Stained 04:31
5. Death by Natural Causes 04:15
6. Dead Men Tell No Tales 05:03
******************************
Total playing time: 30:48



Extended info
Lineup:
Taaken - Vocals, Guitars, Bass, Drums
See also: Gnipahålan, Odal, ex-Aske, ex-Barastir, ex-Erhabenheit, ex-Isenheim, ex-Raven's Empire, ex-Rusting Sun, ex-Salvation666, ex-Seelengreif, ex-Wald Geist Winter, ex-Põhjast


Technical info
(IMG:https://metalarea.org/images/spectrogram/2018_May/bc2d633b0491e2e0689500d2bc618128.png)
Input File: 05 Death by Natural Causes.mp3
Channels : 2
Sample Rate : 44100
Precision : 16-bit
Duration : 00:04:16.08 = 11292952 samples = 19205.7 CDDA sectors
File Size : 10.2M
Bit Rate : 320k
Sample Encoding: MPEG audio (layer I, II or III)
Comments :
Title=Death by Natural Causes
Artist=Wolfsschrei
Album=Rise Dead Ember
Tracknumber=5
Year=2018



Register


Go to the top of the page
  Insert nick Quick quote
+Quote Post
 
Start new topic
Replies (1 - 4)
post May 19 2018, 16:20:55
Post #2

Маньяк
**********
Group: Металариец
Posts: 1,303
Releases: 0
From: Dnipro
On Forums: 10 years 2 months
Thanks: 359 time(s)
Ukraine


Совсем не плохо, зло и мелодично, хотя без изысков и стандартно.
На 4 балла.
Go to the top of the page
  Insert nick Quick quote
+Quote Post
post May 19 2018, 21:53:02
Post #3

MDM-Thrash Metal
**************
Group: Металариец
Posts: 7,061
Releases: 412
From: Одесса
On Forums: 11 years 1 month
Thanks: 13440 time(s)
Ukraine


Register


Go to the top of the page
  Insert nick Quick quote
+Quote Post
post May 20 2018, 22:31:17
Post #4

Satan bless you!
**************
Group: Металариец
Posts: 3,250
Releases: 63
From: Москва
On Forums: 10 years 2 months
Thanks: 2802 time(s)
Russian Federation


О да - вот это явно засидится в моем плеере! (IMG:style_emoticons/default/pray.gif)
Go to the top of the page
  Insert nick Quick quote
+Quote Post
post May 24 2018, 17:38:45
Post #5

Group: Подсевший
Posts: 26
Releases: 0
From: Београд, Србија
On Forums: 9 years 5 months
Thanks: 6 time(s)
Serbia


Одлично!
Go to the top of the page
  Insert nick Quick quote
+Quote Post

Reply to this topicStart new topic
2 User(s) are reading this topic (2 Guests and 0 Anonymous Users)
0 Members:

 



- Lo-Fi Version Support form
Copyrights and abuse reports form
Time is now: 20th September 2018 - 02:13:36