Welcome Guest ( Log In | Register )

> Deathtruck - Beyond The Void [ep] (2018), Melodic Death Metal
post May 19 2018, 05:30:37
Post #1

Serial Uploader
Group Icon
Group: V.I.P
Posts: 36,278
Releases: 34471
From: Lithuania
On Forums: 11 years 4 months
Thanks: 400905 time(s)
Lithuania


(IMG:http://metalarea.org/images/audiocovers/2018_May/acov_tid306133_thumb.jpg)

*Artist: Deathtruck
*Album: Beyond The Void [ep]
*Year: 2018
*Genre: Melodic Death Metal
*Country: United States (IMG:http://metalarea.org/forum/style_images/flags/United%20States.png)
*Format: mp3@CBR320kbps
*Size: 66MB

Tracklist:
01. Regeneration
02. Wasteland of the Dead
03. Descent
04. You're Not Alone
05. Falling Towards the Sun
06. Anubis
******************************
Total playing time: 28:53

Technical info
(IMG:http://metalarea.org/images/spectrogram/2018_May/724f8f38c49a82602368d695c6da2165.png)
Input File: 02. Wasteland of the Dead.mp3
Channels : 2
Sample Rate : 44100
Precision : 16-bit
Duration : 00:03:25.03 = 9041867 samples = 15377.3 CDDA sectors
File Size : 8.20M
Bit Rate : 320k
Sample Encoding: MPEG audio (layer I, II or III)
Comments :
Title=Wasteland of the Dead
Artist=Deathtruck
Album=Beyond the Void
Tracknumber=2/6
Year=2018



Register


Go to the top of the page
  Insert nick Quick quote
+Quote Post
 
Start new topic
Replies (1 - 2)
post May 19 2018, 16:10:29
Post #2

Group: Подсевший
Posts: 38
Releases: 0
On Forums: 9 years 4 months
Thanks: 7 time(s)
Unknown


Где тут мелодик искать?


Thanks:
(1) Andrew,
Go to the top of the page
  Insert nick Quick quote
+Quote Post
post May 19 2018, 22:32:04
Post #3

MDM-Thrash Metal
**************
Group: Металариец
Posts: 8,862
Releases: 670
From: Одесса
On Forums: 12 years 2 months
Thanks: 18654 time(s)
Ukraine


https://www.youtube.com/watch?v=zxV8mFN5l5w...pqa&index=2

Мда....Даже малейших признаков на мелодез нет.
Go to the top of the page
  Insert nick Quick quote
+Quote Post

Reply to this topicStart new topic
1 User(s) are reading this topic (1 Guests and 0 Anonymous Users)
0 Members:

 



- Lo-Fi Version Support form
Copyrights and abuse reports form
Time is now: 16th October 2019 - 13:04:50