Welcome Guest ( Log In | Register )

> Angelfall - Target Souls (2018), Thrash Metal
post May 19 2018, 17:52:01
Post #1

Правь статус, ####!111
**************
Group: Металариец
Posts: 14,307
Releases: 9917
From: Г.Харьков
On Forums: 6 years 4 months
Thanks: 162730 time(s)
Unknown


(IMG:https://metalarea.org/images/audiocovers/2018_May/acov_tid306159_thumb.jpg)

*Artist: Angelfall
*Album: Target Souls
*Year: 2018
*Genre: Thrash Metal
*Country: Canada (IMG:https://metalarea.org/forum/style_images/flags/Canada.png)
*Format: mp3@CBR320kbps
*Size: 65MB

Tracklist:
01. Walking the Road to Hell 03:58
02. Angel of Death 04:01
03. Time Is a Disease 03:46
04. Target Souls 03:56
05. Blood Designer 04:20
06. Angelfall 03:54
07. Slavic 04:15
******************************
Total playing time: 28:10

(IMG:https://metalarea.org/images/youtube.png)


Extended info
Dave Harvey - guitare, vocal
- Raphaël Raymond - basse
- Mike Raymond - batterie
- Stanislav Sfefanovski - guitar


Technical info
(IMG:https://metalarea.org/images/spectrogram/2018_May/6b3d2febb25e5cfe4c84385ffd4e886c.png)
Input File: 02 - Angel of Death.mp3
Channels : 2
Sample Rate : 44100
Precision : 16-bit
Duration : 00:04:01.68 = 10658132 samples = 18126.1 CDDA sectors
File Size : 9.78M
Bit Rate : 324k
Sample Encoding: MPEG audio (layer I, II or III)
Comments :
Title=Angel of Death
Artist=Angelfall
Album=Target Souls
Tracknumber=2/7
Year=2018



Register


Go to the top of the page
  Insert nick Quick quote
+Quote Post
 
Start new topic
Replies (1 - 2)
post May 19 2018, 20:01:13
Post #2

Правь статус, ####!111
**************
Group: Металариец
Posts: 14,307
Releases: 9917
From: Г.Харьков
On Forums: 6 years 4 months
Thanks: 162730 time(s)
Unknown


Register


Go to the top of the page
  Insert nick Quick quote
+Quote Post
post May 20 2018, 14:20:28
Post #3

South Of Heaven /адепт ВУДУ
**************
Group: Металариец
Posts: 12,875
Releases: 7
From: Санкт-Петербург
On Forums: 8 years 5 months
Thanks: 4704 time(s)
Russian Federation


Записались в сортире на диктофон и под труЪ косят? (IMG:style_emoticons/default/crazy.gif)
Go to the top of the page
  Insert nick Quick quote
+Quote Post

Reply to this topicStart new topic
1 User(s) are reading this topic (1 Guests and 0 Anonymous Users)
0 Members:

 



- Lo-Fi Version Support form
Copyrights and abuse reports form
Time is now: 23rd September 2018 - 06:13:53