Welcome Guest ( Log In | Register )

 
Reply to this topicStart new topic
> Obliveon - Pre-Production Demotape [demo] (1989), Death/Thrash Metal
post May 20 2018, 10:40:57
Post #1

Подвал
**************
Group: Металариец
Posts: 12,572
Releases: 7072
From: Far East (Khabarovsk)
On Forums: 9 years 8 months
Thanks: 65349 time(s)
Russian Federation


(IMG:http://metalarea.org/images/audiocovers/2018_May/acov_tid306184_thumb.jpg)

*Artist: Obliveon
*Album: Pre-Production Demotape [demo]
*Year: 1989
*Genre: Death/Thrash Metal
*Country: Canada (IMG:http://metalarea.org/forum/style_images/flags/Canada.png)
*Format: mp3@CBR192kbps
*Size: 42MB

Tracklist:
1. Fiction Of Veracity 08:15
2. Desideratum 05:08
3. Chronocraze 05:40
4. Droidomized 06:12
5. Access To The Acropolis 04:21
******************************
Total playing time: 29:36


(IMG:http://metalarea.org/images/myspace.png)

Technical info
(IMG:http://metalarea.org/images/spectrogram/2018_May/0b3768392d028c116a768dcdfe11dfa1.png)
Input File: 05-Access To the Acropolis.mp3
Channels : 2
Sample Rate : 44100
Precision : 16-bit
Duration : 00:04:21.85 = 11547409 samples = 19638.5 CDDA sectors
File Size : 6.28M
Bit Rate : 192k
Sample Encoding: MPEG audio (layer I, II or III)
Comments :
Title=Access To the Acropolis
Artist=Obliveon (Can)
Album=Pre-Production Demotape '8
Tracknumber=05
Year=1989
Genre=Metal



Register


Go to the top of the page
  Insert nick Quick quote
+Quote Post

Reply to this topicStart new topic
1 User(s) are reading this topic (1 Guests and 0 Anonymous Users)
0 Members:

 



- Lo-Fi Version Support form
Copyrights and abuse reports form
Time is now: 17th October 2018 - 06:36:40