Welcome Guest ( Log In | Register )

 
Reply to this topicStart new topic
> Lacerate - Demo [demo] (1991), Heavy/Thrash Metal (D8)
post May 20 2018, 10:52:43
Post #1

Подвал
**************
Group: Металариец
Posts: 12,295
Releases: 6934
From: Far East (Khabarovsk)
On Forums: 9 years 6 months
Thanks: 63426 time(s)
Russian Federation


(IMG:http://metalarea.org/images/audiocovers/2018_May/acov_tid306185_thumb.jpg)

*Artist: Lacerate
*Album: Demo [demo]
*Year: 1991
*Genre: Heavy/Thrash Metal
*Country: United Kingdom (IMG:http://metalarea.org/forum/style_images/flags/United%20Kingdom.png)
*Format: mp3@CBR320kbps
*Size: 33MB

Tracklist:
1. Insanity 05:10
2. The Awakening 04:56
3. Nuke 'Em 04:48
******************************
Total playing time: 14:54

Extended info
Obscure band from Mansfield.


Technical info
(IMG:http://metalarea.org/images/spectrogram/2018_May/7138abe14b4d1cb5e4749a08cc76b73b.png)
Input File: 03-Nuke \'Em.mp3
Channels : 2
Sample Rate : 48000
Precision : 16-bit
Duration : 00:04:48.07 = 13827600 samples ~ 21605.6 CDDA sectors
File Size : 11.5M
Bit Rate : 320k
Sample Encoding: MPEG audio (layer I, II or III)
Comments :
Title=Nuke 'Em
Artist=Lacerate (UK, Mansfield)
Album=Demo
Tracknumber=03
Year=1991
Genre=Metal



Register


Go to the top of the page
  Insert nick Quick quote
+Quote Post

Reply to this topicStart new topic
1 User(s) are reading this topic (1 Guests and 0 Anonymous Users)
0 Members:

 



- Lo-Fi Version Support form
Copyrights and abuse reports form
Time is now: 14th August 2018 - 09:23:41