Welcome Guest ( Log In | Register )

 
Reply to this topicStart new topic
> Blackened - Thou Shalt Suffer [demo] (1990), Power/Thrash Metal (D9)
post May 20 2018, 11:16:36
Post #1

Подвал
**************
Group: Металариец
Posts: 12,161
Releases: 6860
From: Far East (Khabarovsk)
On Forums: 9 years 4 months
Thanks: 62615 time(s)
Russian Federation


(IMG:http://metalarea.org/images/audiocovers/2018_May/acov_tid306188_thumb.jpg)

*Artist: Blackened
*Album: Thou Shalt Suffer [demo]
*Year: 1990
*Genre: Power/Thrash Metal
*Country: Norway (IMG:http://metalarea.org/forum/style_images/flags/Norway.png)
*Format: mp3@CBR192kbps
*Size: 35MB

Tracklist:
1. World Of Sorrow 06:49
2. Last Victim 05:34
3. The Day After 05:17
4. Insane While Killing 04:41
5. The March 02:28
6. Blackened Rap 01:15
******************************
Total playing time: 26:04

Extended info
Pre-Paradigma.


Technical info
(IMG:http://metalarea.org/images/spectrogram/2018_May/1fd68f620fdf61b00c3f4890035457c0.png)
Input File: 05-The March.mp3
Channels : 2
Sample Rate : 44100
Precision : 16-bit
Duration : 00:02:28.18 = 6534738 samples = 11113.5 CDDA sectors
File Size : 3.56M
Bit Rate : 192k
Sample Encoding: MPEG audio (layer I, II or III)
Comments :
Title=The March
Artist=Blackened (Nor)
Album=Thou Shalt Suffer (Demo)
Tracknumber=05
Year=1990
Genre=Metal



Register


Go to the top of the page
  Insert nick Quick quote
+Quote Post

Reply to this topicStart new topic
2 User(s) are reading this topic (2 Guests and 0 Anonymous Users)
0 Members:

 



- Lo-Fi Version Support form
Copyrights and abuse reports form
Time is now: 21st June 2018 - 09:23:48