Welcome Guest ( Log In | Register )

 
Reply to this topicStart new topic
> Progeria - Mirror Of Pain [demo] (1999), Thrash Metal (D8)
post May 20 2018, 11:34:05
Post #1

Подвал
**************
Group: Металариец
Posts: 12,295
Releases: 6934
From: Far East (Khabarovsk)
On Forums: 9 years 6 months
Thanks: 63426 time(s)
Russian Federation


(IMG:http://metalarea.org/images/audiocovers/2018_May/acov_tid306190_thumb.jpg)

*Artist: Progeria
*Album: Mirror Of Pain [demo]
*Year: 1999
*Genre: Thrash Metal
*Country: Germany (IMG:http://metalarea.org/forum/style_images/flags/Germany.png)
*Format: mp3@CBR192kbps
*Size: 58MB

Tracklist:
1. Into The Dark 04:26
2. Bloody Sun 03:56
3. Face 03:56
4. Ashes 04:58
5. Confusion 04:18
6. Misery 03:59
7. Mindchange 05:21
8. Never Trust 04:04
9. Childhood 03:30
10. Possessed 04:22
******************************
Total playing time: 42:50

Extended info
Female fronted band.


Technical info
(IMG:http://metalarea.org/images/spectrogram/2018_May/c9f277d5706899e8f745d4fe445ee13c.png)
Input File: 01-Into the Dark.mp3
Channels : 2
Sample Rate : 44100
Precision : 16-bit
Duration : 00:04:26.13 = 11736377 samples = 19959.8 CDDA sectors
File Size : 6.39M
Bit Rate : 192k
Sample Encoding: MPEG audio (layer I, II or III)
Comments :
Title=Into the Dark
Artist=Progeria (Ger)
Album=Mirror of Pain (Demo)
Tracknumber=01
Year=1999
Genre=Thrash Metal



Register


Go to the top of the page
  Insert nick Quick quote
+Quote Post

Reply to this topicStart new topic
1 User(s) are reading this topic (1 Guests and 0 Anonymous Users)
0 Members:

 



- Lo-Fi Version Support form
Copyrights and abuse reports form
Time is now: 14th August 2018 - 09:23:34