Welcome Guest ( Log In | Register )

> Bloodshed - Bloodshed (2000), Death Metal
post May 20 2018, 11:47:51
Post #1

Подвал
**************
Group: Металариец
Posts: 12,583
Releases: 7078
From: Far East (Khabarovsk)
On Forums: 9 years 8 months
Thanks: 65432 time(s)
Russian Federation


(IMG:http://metalarea.org/images/audiocovers/2018_May/acov_tid306191_thumb.JPG)

*Artist: Bloodshed
*Album: Bloodshed
*Year: 2000
*Genre: Death Metal
*Country: Germany (IMG:http://metalarea.org/forum/style_images/flags/Germany.png)
*Format: mp3@CBR192kbps
*Size: 50MB

Tracklist:
1. The Arrival Of The Darkest Age 02:49
2. Desire For Blood 05:33
3. The Unlight Inside 02:51
4. Raped Damned Agony - Revenge Of The Tortured 04:57
5. Instinct To Kill 03:33
6. Rain 06:32
7. Sexual Morbid Desaster 05:42
8. The Gate Of Evil Of Darkness 05:07
******************************
Total playing time: 37:04



Extended info
Recorded in Borderline Studio, Helmstedt.


Technical info
(IMG:http://metalarea.org/images/spectrogram/2018_May/d0e88a05ce3fc41ddbb11150c73846b8.png)
Input File: 01-The Arrival of the Darkest Age.mp3
Channels : 2
Sample Rate : 44100
Precision : 16-bit
Duration : 00:02:50.94 = 7538234 samples = 12820.1 CDDA sectors
File Size : 4.10M
Bit Rate : 192k
Sample Encoding: MPEG audio (layer I, II or III)
Comments :
Title=The Arrival of the Darkest Age
Artist=Bloodshed
Album=Bloodshed
Tracknumber=01
Year=2000
Genre=Death Metal



Register


Go to the top of the page
  Insert nick Quick quote
+Quote Post
 
Start new topic
Replies (1 - 6)
post May 21 2018, 09:40:07
Post #2

Литр
*
Group: Подсевший
Posts: 96
Releases: 0
From: Kharkov
On Forums: 1 year 4 months
Thanks: 11 time(s)
Ukraine


Proteus_666, обновите ссылку,ибо при распаковки папки,дефект и брак!или другие ссылки поставьте! (IMG:style_emoticons/default/normal_Homerdisgust3.png)
Go to the top of the page
  Insert nick Quick quote
+Quote Post
post May 21 2018, 18:52:13
Post #3

Литр
*
Group: Подсевший
Posts: 96
Releases: 0
From: Kharkov
On Forums: 1 year 4 months
Thanks: 11 time(s)
Ukraine


Proteus_666, Салют,ссылку обновите,или добавьте ещё другие ссылки,ибо в яндекс ссылке папка с файлом запорота и не фурычит!
Go to the top of the page
  Insert nick Quick quote
+Quote Post
post May 23 2018, 07:12:21
Post #4

Подвал
**************
Group: Металариец
Posts: 12,583
Releases: 7078
From: Far East (Khabarovsk)
On Forums: 9 years 8 months
Thanks: 65432 time(s)
Russian Federation


ЦИТАТА(Albert66613 @ May 21 2018, 20:52:13) *
Proteus_666, Салют,ссылку обновите,или добавьте ещё другие ссылки,ибо в яндекс ссылке папка с файлом запорота и не фурычит!

Albert66613, проверил яндекс ссылку, все работает, скачивается, распаковывается.
как альтернатива другой хост
Register


Thanks:
(1) Diflock,
Go to the top of the page
  Insert nick Quick quote
+Quote Post
post May 23 2018, 15:39:50
Post #5

Литр
*
Group: Подсевший
Posts: 96
Releases: 0
From: Kharkov
On Forums: 1 year 4 months
Thanks: 11 time(s)
Ukraine


Proteus_666, скачивать то скачивает,и распаковывает,вот треки все+сканы не играет и сканы не показывает,всё по нолям!ёлы палы!

Go to the top of the page
  Insert nick Quick quote
+Quote Post
post May 29 2018, 09:33:38
Post #6

Подвал
**************
Group: Металариец
Posts: 12,583
Releases: 7078
From: Far East (Khabarovsk)
On Forums: 9 years 8 months
Thanks: 65432 time(s)
Russian Federation


ЦИТАТА(Albert66613 @ May 23 2018, 17:39:50) *
Proteus_666, скачивать то скачивает,и распаковывает,вот треки все+сканы не играет и сканы не показывает,всё по нолям!ёлы палы!

еще раз проверил, с ядиска у меня распаковалось и буквально все воспроизвелось от картинок до каждого звукового трэка. хз что за глюк.


Thanks:
Go to the top of the page
  Insert nick Quick quote
+Quote Post
post May 29 2018, 20:38:37
Post #7

Литр
*
Group: Подсевший
Posts: 96
Releases: 0
From: Kharkov
On Forums: 1 year 4 months
Thanks: 11 time(s)
Ukraine


Proteus_666, пришлось потрэково со сканами внутри ядиска вытаскивать,получилось!это у них глюки что то там!обычно я файл папку целиком скачивал всегда с ядиска всегда нормалёк!!!а тут ни в какую папку не отдаёт и всё!ну я внутри ядиска потрэково выташил,как то так,и на том спасибо!всё таки ядерный раритет!!! (IMG:style_emoticons/default/9.gif) (IMG:style_emoticons/default/9.gif) (IMG:style_emoticons/default/9.gif)


Thanks:
Go to the top of the page
  Insert nick Quick quote
+Quote Post

Reply to this topicStart new topic
1 User(s) are reading this topic (1 Guests and 0 Anonymous Users)
0 Members:

 



- Lo-Fi Version Support form
Copyrights and abuse reports form
Time is now: 20th October 2018 - 04:53:05