Welcome Guest ( Log In | Register )

> Releases Upload / Добавление релизов

Добавить релиз тут / Click here to add release
Рекомендованные обменники / Recommended file shares

> Cline's Mind - Souls Of The Lost (2018), Thrash/Speed Metal
post May 21 2018, 10:49:42
Post #1

Serial Uploader
Group Icon
Group: V.I.P
Posts: 32,712
Releases: 31004
From: Lithuania
On Forums: 10 years 1 week
Thanks: 355607 time(s)
Lithuania


(IMG:https://metalarea.org/images/audiocovers/2018_May/acov_tid306210_thumb.jpg)

*Artist: Cline's Mind
*Album: Souls Of The Lost
*Year: 2018
*Genre: Thrash/Speed Metal
*Country: United States (IMG:https://metalarea.org/forum/style_images/flags/United%20States.png)
*Format: mp3@CBR320kbps
*Size: 104MB

Tracklist:
01. We All Bleed Red 04:12
02. To The End Of Earth I Go 04:46
03. Souls Of The Lost 04:41
04. Through Your Eyes 04:50
05. The Darkness In Your Head 04:19
06. Erasing Memories 04:44
07. Altered Deception 05:16
08. Nocturnal Flesh 05:10
09. Where My Journey Ends 07:19
******************************
Total playing time: 45:17





Technical info
(IMG:https://metalarea.org/images/spectrogram/2018_May/48e7992ae9670d628e3d25ea3311b3eb.png)
Input File: 02. To the End of Earth I Go.mp3
Channels : 2
Sample Rate : 44100
Precision : 16-bit
Duration : 00:04:46.28 = 12624904 samples = 21470.9 CDDA sectors
File Size : 11.5M
Bit Rate : 322k
Sample Encoding: MPEG audio (layer I, II or III)
Comments :
Title=To the End of Earth I Go
Artist=Cline's Mind
Album=Souls of the Lost
Tracknumber=2/9
Year=2018
Genre=9
Discnumber=1/1



Register


Go to the top of the page
  Insert nick Quick quote
+Quote Post
 
Start new topic
Replies (1 - 2)
post May 21 2018, 21:27:01
Post #2

MDM-Thrash Metal
**************
Group: Металариец
Posts: 6,796
Releases: 412
From: Одесса
On Forums: 10 years 10 months
Thanks: 12951 time(s)
Ukraine


Register


Go to the top of the page
  Insert nick Quick quote
+Quote Post
post May 22 2018, 17:22:54
Post #3

Group: Подсевший
Posts: 23
Releases: 0
On Forums: 7 years 10 months
Thanks: 3 time(s)
Ukraine


нюметал
Go to the top of the page
  Insert nick Quick quote
+Quote Post

Reply to this topicStart new topic
2 User(s) are reading this topic (2 Guests and 0 Anonymous Users)
0 Members:

 



- Lo-Fi Version Support form
Copyrights and abuse reports form
Time is now: 18th June 2018 - 18:04:42