Welcome Guest ( Log In | Register )

> Dethlahem - The Birthplace Of Deth (2018), Thrash Metal
post May 22 2018, 14:54:42
Post #1

Serial Uploader
Group Icon
Group: V.I.P
Posts: 33,569
Releases: 31832
From: Lithuania
On Forums: 10 years 7 months
Thanks: 363365 time(s)
Lithuania


(IMG:http://metalarea.org/images/audiocovers/2018_May/acov_tid306248_thumb.jpg)

*Artist: Dethlahem
*Album: The Birthplace Of Deth
*Year: 2018
*Genre: Thrash Metal
*Country: Australia (IMG:http://metalarea.org/forum/style_images/flags/Australia.png)
*Format: mp3@CBR320kbps
*Size: 119MB

Tracklist:
01. Seas of Black
02. I'm Your Enemy
03. Grave of Repentment
04. The Good, the Bad and the Evil
05. Wartorn
06. Overcome
07. Devils Man
08. Turpitude
09. Undertaking
10. Dark Knights
11. I'm Your Enemy (Orchestra)
******************************
Total playing time: 51:58



Technical info
(IMG:http://metalarea.org/images/spectrogram/2018_May/9fe6279dc962c7c8f6c32b5a3353b2e4.png)
Input File: 02. I\'m Your Enemy.mp3
Channels : 2
Sample Rate : 44100
Precision : 16-bit
Duration : 00:05:05.69 = 13480929 samples = 22926.8 CDDA sectors
File Size : 12.2M
Bit Rate : 320k
Sample Encoding: MPEG audio (layer I, II or III)
Comments :
Title=I'm Your Enemy
Artist=Dethlahem
Album=The Birthplace of Deth
Tracknumber=2/11
Year=2018



Register


Go to the top of the page
  Insert nick Quick quote
+Quote Post
 
Start new topic
Replies (1 - 3)
post May 25 2018, 08:29:34
Post #2

Три Литра
***
Group: Завсегдатай
Posts: 205
Releases: 0
From: Россия
On Forums: 6 years 11 months
Thanks: 67 time(s)
Russian Federation


Снова тебя дятел одержимый обманул с годом и типом релиза,у кого ты перелил не глядя (IMG:style_emoticons/default/1488.gif)

Это демо 2001г,изданное в 2017.Плюс оно бесплатное на бендкампе (IMG:style_emoticons/default/1488.gif)

https://www.metal-archives.com/albums/Dethl...ing_2001/668209


Thanks:
(1) Diflock,
Go to the top of the page
  Insert nick Quick quote
+Quote Post
post May 25 2018, 08:30:28
Post #3

Правь статус, ####!111
**************
Group: Металариец
Posts: 36,460
Releases: 537
On Forums: 9 years 7 months
Thanks: 28188 time(s)
Russian Federation


ЦИТАТА(Kehl05 @ May 25 2018, 11:29:34) *
Снова тебя дятел одержимый обманул с годом и типом релиза,у кого ты перелил не глядя (IMG:style_emoticons/default/1488.gif)


(IMG:style_emoticons/default/1488.gif) Вам бы с таким слогом книжки писать надо, уважаемый (IMG:style_emoticons/default/bye.gif)

Обложка зело хороша, а вот музыкальное наполнение неплохо.
Go to the top of the page
  Insert nick Quick quote
+Quote Post
post May 25 2018, 08:54:35
Post #4

Dr.
**************
Group: Металариец
Posts: 5,274
Releases: 0
From: Primorye.ru
On Forums: 7 years 9 months
Thanks: 1061 time(s)
Russian Federation


ЦИТАТА(Kehl05 @ May 25 2018, 17:29:34) *
Снова тебя дятел одержимый обманул с годом и типом релиза,у кого ты перелил не глядя (IMG:style_emoticons/default/1488.gif)

Это демо 2001г,изданное в 2017.Плюс оно бесплатное на бендкампе (IMG:style_emoticons/default/1488.gif)

https://www.metal-archives.com/albums/Dethl...ing_2001/668209

Kehl05 ладно тебе уже))) В его случае это бизнес и ничего личного (IMG:style_emoticons/default/smile1.gif)
Go to the top of the page
  Insert nick Quick quote
+Quote Post

Reply to this topicStart new topic
1 User(s) are reading this topic (1 Guests and 0 Anonymous Users)
0 Members:

 



- Lo-Fi Version Support form
Copyrights and abuse reports form
Time is now: 18th January 2019 - 18:41:39