Welcome Guest ( Log In | Register )

> Releases Upload / Добавление релизов

Добавить релиз тут / Click here to add release
Рекомендованные обменники / Recommended file shares

> Exmortus - The Sound Of Steel (2018), Technical Melodic Thrash/Death Metal (D6)
post May 22 2018, 16:15:24
Post #1

Правь статус, ####!111
**************
Group: Металариец
Posts: 13,331
Releases: 9407
From: Г.Харьков
On Forums: 6 years 1 month
Thanks: 153534 time(s)
Unknown


(IMG:https://metalarea.org/images/audiocovers/2018_May/acov_tid306249_thumb.jpg)

*Artist: Exmortus
*Album: The Sound Of Steel
*Year: 2018
*Genre: Technical Melodic Thrash/Death Metal
*Country: United States (IMG:https://metalarea.org/forum/style_images/flags/United%20States.png)
*Format: mp3@CBR320kbps
*Size: 100MB

Tracklist:
1. Make Haste 04:02
2. Feast of Flesh 03:41
3. Into the Maw of Hell 04:29
4. To the Ends of the Earth 05:49
5. A Minor Instrumental 02:58
6. Strength and Honor 04:38
7. Turn the Tide 03:57
8. Tempest 04:09
9. Riders of Doom 04:55
10. Victory or Death! 03:41
******************************
Total playing time: 42:19




Extended info
Jadran "Conan" Gonzalez Guitars, Vocals
See also: ex-Rattlehead, ex-Warbringer (live)
Phillip Nuñez Bass (2016-present)
Carlos Cruz Drums (2018-present)
See also: Warbringer, ex-Mantic Ritual (live), Reseda Reign, ohm (live), ex-Blade Killer (live), ex-Enforcer (live), ex-Skeletal Remains (live), ex-In Misery, ex-Hexen, ex-War Ensemble
Chase Becker Guitars (2018-present)
See also: Warbringer, ex-Desecrate, ex-Jungle Rot (live)


Technical info
(IMG:https://metalarea.org/images/spectrogram/2018_May/ec63159449f3710fbc6185807ba74667.png)
Input File: 02. Feast Of Flesh.mp3
Channels : 2
Sample Rate : 44100
Precision : 16-bit
Duration : 00:03:41.52 = 9768856 samples = 16613.7 CDDA sectors
File Size : 9.21M
Bit Rate : 332k
Sample Encoding: MPEG audio (layer I, II or III)
Comments :
Title=Feast Of Flesh
Artist=Exmortus
Album=The Sound Of Steel
Tracknumber=2/10
Year=2018
Discnumber=1/1



Register


Go to the top of the page
  Insert nick Quick quote
+Quote Post
 
Start new topic
Replies (1 - 8)
post May 23 2018, 09:29:11
Post #2

Правь статус, ####!111
**************
Group: Металариец
Posts: 13,331
Releases: 9407
From: Г.Харьков
On Forums: 6 years 1 month
Thanks: 153534 time(s)
Unknown


Register


Go to the top of the page
  Insert nick Quick quote
+Quote Post
post May 23 2018, 11:36:19
Post #3

Четыре Литра
****
Group: Металариец
Posts: 348
Releases: 0
From: Przemysl
On Forums: 3 years 5 months
Thanks: 255 time(s)
Poland


Все больше похожими на Norther/CoB становятся.
Go to the top of the page
  Insert nick Quick quote
+Quote Post
post May 23 2018, 13:44:35
Post #4

Два Литра
**
Group: Завсегдатай
Posts: 141
Releases: 0
On Forums: 4 years 10 months
Thanks: 90 time(s)
Monaco


technical melodic blah blah blah
Go to the top of the page
  Insert nick Quick quote
+Quote Post
post May 23 2018, 20:19:36
Post #5

Правь статус, ####!111
**************
Group: Металариец
Posts: 2,051
Releases: 0
From: Odessa
On Forums: 10 years 3 months
Thanks: 755 time(s)
Ukraine


nothing. next
Go to the top of the page
  Insert nick Quick quote
+Quote Post
post May 28 2018, 19:12:14
Post #6

В чистоте и единстве:мысль-слово-дело
**************
Group: Металариец
Posts: 2,221
Releases: 9
From: Киев
On Forums: 10 years 11 months
Thanks: 1232 time(s)
Ukraine


По лучше предыдущих работ.
Но банда одного альбома, а именно 2008. Остальное все на любителя.
Go to the top of the page
  Insert nick Quick quote
+Quote Post
post Jun 6 2018, 18:25:00
Post #7

Schuldinerist
**************
Group: Металариец
Posts: 9,666
Releases: 33
From:
On Forums: 11 years 2 months
Thanks: 5778 time(s)
Russian Federation


Это уже не дэт, и не трэш, и не мелодик-дэт...
Некая экстремальная смесь мелодичного металла на хороших скоростях с элементами вышеперечисленных жанров и с вокалом похожим на гроулинг.
Так или иначе, альбомчик очень даже достойный. Заслуживает как минимум ознакомления.
А мне так вообще вкатил на все 9/10


Go to the top of the page
  Insert nick Quick quote
+Quote Post
post Jun 12 2018, 18:50:59
Post #8

Old School Metal
**************
Group: Металариец
Posts: 2,555
Releases: 0
From: г. Минск
On Forums: 9 years 3 months
Thanks: 5099 time(s)
Belarus


(IMG:https://a.radikal.ru/a29/1806/19/bc9725359758.png)


Exmortus - The Sound Of Steel (2018, Avalon Marquee Inc.-Japan)


(IMG:http://i104.fastpic.ru/big/2018/0606/1a/0810ad8ef844947750d2c91b0a71de1a.jpg)


Tracklist:

01. Make Haste
02. Feast Of Flesh
03. Into The Maw Of Hell
04. To The Ends Of The Earth
05. A Minor Instrumental
06. Strength And Honor
07. Turn The Tide
08. Tempest
09. Riders Of Doom
10. Victory Or Death!
11. S.A.T.O. (Ozzy Osbourne cover / Bonus Track)


Register
Go to the top of the page
  Insert nick Quick quote
+Quote Post
post Jun 12 2018, 19:32:40
Post #9

к приему виски готов
******
Group: Металариец
Posts: 652
Releases: 2
From: Украина
On Forums: 9 years 3 months
Thanks: 385 time(s)
Ukraine


слабоват альбом. могут играть и лучше, но нет, слепили просто качественный середняк.
Go to the top of the page
  Insert nick Quick quote
+Quote Post

Reply to this topicStart new topic
1 User(s) are reading this topic (1 Guests and 0 Anonymous Users)
0 Members:

 



- Lo-Fi Version Support form
Copyrights and abuse reports form
Time is now: 18th June 2018 - 21:58:27