Welcome Guest ( Log In | Register )

> И неформату есть предел.

Рэп/хип-хоп/шансон/поп удаляются. Для них есть свои порталы.

> Tragedy Club - Poison Ivy [ep] (2018), Indie/Alternative Rock
post May 23 2018, 06:28:06
Post #1

Правь статус, ####!111
**************
Group: Металариец
Posts: 32,315
Releases: 486
On Forums: 9 years 3 weeks
Thanks: 24730 time(s)
Russian Federation


(IMG:http://metalarea.org/images/audiocovers/2018_May/acov_tid306272_thumb.jpg)

*Artist: Tragedy Club
*Album: Poison Ivy [ep]
*Year: 2018
*Genre: Indie/Alternative Rock
*Country: Russian Federation (IMG:http://metalarea.org/forum/style_images/flags/Russian%20Federation.png)
*Format: mp3@CBR320kbps
*Size: 26MB

Tracklist:
1. Poison Ivy
2. Дым
3. Я и Ты
******************************
Total playing time: 12:22

Preview 1

Technical info
(IMG:http://metalarea.org/images/spectrogram/2018_May/9197144ccb14ac0c92b2e90d13019869.png)
Input File: 01. Poison Ivy.mp3
Channels : 2
Sample Rate : 44100
Precision : 16-bit
Duration : 00:04:19.66 = 11450874 samples = 19474.3 CDDA sectors
File Size : 10.4M
Bit Rate : 320k
Sample Encoding: MPEG audio (layer I, II or III)
Comments :
Title=Poison Ivy
Artist=Tragedy Club
Album=Poison Ivy
Tracknumber=01
Year=2018
Genre=Indie Rock



Register


Thanks:
(1) gwar,
Go to the top of the page
  Insert nick Quick quote
+Quote Post
 
Start new topic
Replies (1 - 6)
post May 23 2018, 10:17:06
Post #2

Правь статус, ####!111
**************
Group: Металариец
Posts: 32,315
Releases: 486
On Forums: 9 years 3 weeks
Thanks: 24730 time(s)
Russian Federation


Проект где барабанит всеми нами любимый димасио frost 192 - faust vulkan 16. Остальные участники - кирилл и катя из готик дум дет банды auto de fe где димон также стучит. Отличная запись!
Go to the top of the page
  Insert nick Quick quote
+Quote Post
post May 23 2018, 19:08:05
Post #3

Правь статус, ####!111
**************
Group: Металариец
Posts: 32,315
Releases: 486
On Forums: 9 years 3 weeks
Thanks: 24730 time(s)
Russian Federation


@320

Register
Go to the top of the page
  Insert nick Quick quote
+Quote Post
post May 23 2018, 19:38:28
Post #4

Правь статус, ####!111
**************
Group: Металариец
Posts: 2,086
Releases: 0
From: Odessa
On Forums: 10 years 3 months
Thanks: 776 time(s)
Ukraine


Go to the top of the page
  Insert nick Quick quote
+Quote Post
post May 23 2018, 20:46:15
Post #5

Герберт Уэст
**************
Group: Металариец
Posts: 2,028
Releases: 59
From: ранее: Кто здесь? нынче:Где-то на краю мира...
On Forums: 9 years 1 week
Thanks: 4001 time(s)
Unknown


ЦИТАТА
3. Я и Ты
Просто оставлю это тут...

(IMG:style_emoticons/default/25.gif)
Go to the top of the page
  Insert nick Quick quote
+Quote Post
post May 25 2018, 16:15:16
Post #6

Правь статус, ####!111
**************
Group: Металариец
Posts: 32,315
Releases: 486
On Forums: 9 years 3 weeks
Thanks: 24730 time(s)
Russian Federation


Go to the top of the page
  Insert nick Quick quote
+Quote Post
post Jun 13 2018, 15:28:32
Post #7

Правь статус, ####!111
**************
Group: Металариец
Posts: 32,315
Releases: 486
On Forums: 9 years 3 weeks
Thanks: 24730 time(s)
Russian Federation


C нетерпением жду полноформат, раз уж от АДФ хрен че дождешься.

Как для лаунжа - отлично отлично, даже на работе люди прутся, не просят вырубить (IMG:style_emoticons/default/smile1.gif)
Go to the top of the page
  Insert nick Quick quote
+Quote Post

Reply to this topicStart new topic
1 User(s) are reading this topic (1 Guests and 0 Anonymous Users)
0 Members:

 



- Lo-Fi Version Support form
Copyrights and abuse reports form
Time is now: 23rd June 2018 - 18:23:13